<svg xmlns="http://www.w3.org/2000/svg"><defs><font horiz-adv-x="649" id="ywftsvg"><font-face ascent="1638" bbox="-202.234 -635.559 2671 2002.98" cap-height="1434" descent="-410" font-weight="400" panose-1="2 0 5 3 0 0 0 2 0 4" underline-position="0" underline-thickness="0" unicode-range="U+0020-F6C3" units-per-em="2048" x-height="1004"/><glyph glyph-name=".notdef" horiz-adv-x="450"/><glyph glyph-name="glyph1" horiz-adv-x="0"/><glyph glyph-name="glyph2" horiz-adv-x="681"/><glyph glyph-name="space" horiz-adv-x="450"/><glyph d="M268 352q84 0 136.5-52T457 168q0-82-52.5-134T268-18 131 34 78 168q0 80 53 132t137 52zm.5 1098q114.5 0 169-86t29.5-223q-37-193-96-520-23-121-43-146-20-23-60-22-49 0-66.5 30.5T170 596q-2 16-4 25-39 213-63.5 347T70 1141q-25 137 29.5 223t169 86z" glyph-name="exclam" horiz-adv-x="536" unicode="!"/><glyph d="M207 1442q72 0 113.5-49.5T348 1264q-14-78-67-250l-6.5-19.5L268 976l-5-15.5-6-14.5-7-11-8-10-9.5-6.5L221 914l-14-1-14.5 1-11.5 4.5-8 6.5-7 10-7 11-6 14.5-5.5 15.5-6.5 18.5-6 19.5q-49 152-69 250-14 80 27.5 129t113.5 49zm339.5 0q71.5 0 113.5-49.5t28-129-70-249.5q-2-6-6-19.5t-6-18.5-5-15.5-6-14.5-7-11-7-10-8.5-6.5T561 914t-14-1q-29 0-42 19.5T477 999q-2 10-4 15-53 172-67 250-14 80 27.5 129t113 49z" glyph-name="quotedbl" horiz-adv-x="753" unicode="&quot;"/><glyph d="M1249 1004q33 0 56.5-24t23.5-56v-19q0-33-23.5-56.5T1249 825H993q-8-37-25.5-112.5T942 598h236q35 0 57-22.5t22-57.5v-18q0-33-22.5-56.5T1178 420H903q-18-82-36.5-169t-29-134T825 61q-18-80-94-79h-18q-35 0-55.5 21.5T645 61q8 41 80 359H498q-18-82-37-169t-29-134-12-56q-18-80-94-79h-19q-35 0-55.5 21.5T240 61q8 41 79 359H100q-35 0-57.5 23.5T20 500v18q0 35 23 57.5t57 22.5h258l50 227H170q-33 0-56.5 23.5T90 905v19q0 33 23.5 56.5T170 1004h279q18 86 36.5 173t29.5 137 13 56q18 80 95 80h18q37 0 55.5-20.5T707 1370q0-4-11.5-55t-31-138-37.5-173h227q18 86 36.5 173t30 137 13.5 56q18 80 94 80h19q37 0 55-20.5t10-59.5q0-4-11-55t-30.5-138-38.5-173h217zM764 598l49 227H588q-8-37-25.5-112.5T537 598h227z" glyph-name="numbersign" horiz-adv-x="1349" unicode="#"/><glyph d="M809 858q276-125 380.5-228.5T1272 354q-27-195-168-280.5T717-16v-105q0-23-16.5-40T659-178h-2q-23 0-39 17.5T602-121v107Q475-4 366.5 34t-177 90T81 236.5t-39 118T84 455q35 37 91 50t112.5-8.5T373 420q4-10 20.5-44t24.5-49.5 27.5-44 39-45 50-33T602 178v342q-84 39-140 70t-134 85-122 108.5-73 132-18 163.5q45 362 487 373v102q0 25 16.5 41.5T657 1612h2q25 0 41.5-16.5T717 1554v-106q131-8 236.5-46t167-91.5 92-111.5 22.5-113.5-53-92.5q-57-51-140.5-44T907 1028q-16 23-39.5 84.5t-56.5 98-94 49.5V903q24-14 92-45zm-311 254q8-78 104-143v291q-118-31-104-148zm366-844q20 111-135 193l-12 6V166q129 4 147 102z" glyph-name="dollar" horiz-adv-x="1318" unicode="$"/><glyph d="M1339 1434q41 0 61.5-25t-7.5-90Q1106 838 670 80 623 0 561 0h-61q-39 0-56.5 26.5T453 113q444 776 712 1230 53 90 113 91h61zm-497-346.5q0-167.5-105.5-265T453 725q-180 0-286 97.5t-106 265 105.5 266T453 1452q178 0 283.5-98.5t105.5-266zm-514-.5q0-100 32.5-163.5t92-63.5 91 63.5T575 1087q0 102-31.5 165t-91 63-92-63-32.5-165zm1071-378q180 0 285.5-97.5T1790 346 1684.5 80 1399-18q-178 0-283.5 98T1010 346t105.5 265.5T1399 709zm-.5-590q59.5 0 92.5 62.5t33 164.5q0 100-33 162.5t-92.5 62.5-91-62.5T1276 346q0-102 31.5-164.5t91-62.5z" glyph-name="percent" horiz-adv-x="1851" unicode="%"/><glyph d="M1513 209q39 0 41-57 4-80-73-134-82-55-217-34-100 14-248 118Q848-17 639-16q-258 0-419 96T43 375q-10 137 67.5 238.5T324 762q-88 96-126 164.5T156 1083q-8 176 132 272.5t359 96.5q223 0 359.5-93t119.5-276q-10-117-101-217T772 713q51-47 131-113 113-94 201-164 115 166 67 232-43 59-56 84.5t-11 52.5q6 61 96 61h230q94 0 96-61 4-59-107-133-27-20-53.5-70.5t-62-128.5-70.5-133q182-125 280-131zM647 1284q-84 4-124-61.5T502 1069q23-92 131-219 133 84 145 219 10 90-23.5 150.5T647 1284zm15-1147q117-14 227 62-172 145-381 366-59-80-59-182 0-100 59.5-167T662 137z" glyph-name="ampersand" horiz-adv-x="1597" unicode="&amp;"/><glyph d="M207 1442q72 0 113.5-49.5T348 1264q-14-78-67-250l-6.5-19.5L268 976l-5-15.5-6-14.5-7-11-8-10-9.5-6.5L221 914l-14-1-14.5 1-11.5 4.5-8 6.5-7 10-7 11-6 14.5-5.5 15.5-6.5 18.5-6 19.5q-49 152-69 250-14 80 27.5 129t113.5 49z" glyph-name="quotesingle" horiz-adv-x="413" unicode="'"/><glyph d="M520 1511q14-23 13-32t-14-40.5-32.5-60-43-91-42-134.5-32-188.5T356 713t13.5-252 32-188.5 42-134 43-91.5T519-13.5 533.5-54 520-86q-27-14-79-3T323.5-5t-124 165T101 400.5 61 713t40 312.5 98.5 240.5 124 164.5T441 1514t79-3z" glyph-name="parenleft" horiz-adv-x="595" unicode="("/><glyph d="M76 1511q27 14 79 3t117.5-83.5 124-164.5 98.5-240.5T535 713t-40-312.5T396.5 160 272.5-5t-118-84T76-86Q62-63 62.5-54t14 40.5 33 60.5 43 91.5 42 134 32 188.5T240 713t-13.5 251.5-32 188.5-42 134.5-43 91-33 60-14 40.5 13.5 32z" glyph-name="parenright" horiz-adv-x="595" unicode=")"/><glyph d="M850 1415q8-37-10.5-69.5T768 1303q-23-4-205-15-16-2-57-6 25-20 35-29 145-125 155-137 37-45 32-81t-36-56q-23-23-63.5-17.5T559 1014q-12 23-88 186-8 20-14 31-2-6-7.5-16.5T442 1200q-76-164-88-186-29-47-69.5-52.5T221 979q-31 20-35 56t33 81q14 16 154 137 20 16 35 31-23 0-56 4-186 10-207 15-53 10-71.5 43.5T66 1415q10 37 40.5 53.5t86.5-2.5q49-20 182-96 4-2 21.5-11t27.5-16q-8 45-10 56-41 180-43 200-6 53 21.5 81t64.5 28 64.5-27.5T543 1599q-2-20-43-200-2-4-5-24.5t-8-31.5q8 6 25.5 14.5T539 1370q141 78 182 96 57 18 88 2t41-53z" glyph-name="asterisk" horiz-adv-x="915" unicode="*"/><glyph d="M838 745q35 0 57.5-22.5T918 666v-48q0-33-24-56t-56-23H594V295q0-33-23.5-57.5T514 213h-47q-33 0-56.5 23.5T387 295v244H141q-33 0-56.5 23.5T61 618v48q0 33 24 56t56 23h246v246q0 33 23.5 56.5T467 1071h47q33 0 56.5-23.5T594 991V745h244z" glyph-name="plus" horiz-adv-x="978" unicode="+"/><glyph d="M252 352q82 0 135-56t53-146q0-115-49-220.5T258-238q-57-43-94-12t8 92q47 61 61 142-78 6-125 56T61 168q0 80 53.5 132T252 352z" glyph-name="comma" horiz-adv-x="501" unicode=","/><glyph d="M838 731q35 0 57.5-23.5T918 651v-18q0-35-23-57.5T838 553H141q-33 0-56.5 23.5T61 633v18q0 33 24 56.5t56 23.5h697z" glyph-name="hyphen" horiz-adv-x="978" unicode="-"/><glyph d="M250 352q84 0 137-52t53-132q0-82-53-134T250-18 113.5 34 61 168q0 80 52.5 132T250 352z" glyph-name="period" horiz-adv-x="501" unicode="."/><glyph d="M743 1538q96 0 54-113Q277 51 244-33q-35-80-94-80h-19q-37 0-57.5 26T70-18q526 1391 557 1466 18 51 40.5 70.5T725 1538h18z" glyph-name="slash" horiz-adv-x="872" unicode="/"/><glyph d="M621 1450q264 0 421.5-199.5T1200 717q0-336-157.5-535.5T621-18q-266 0-423 199.5T41 717t157 534.5T621 1450zm0-1282q164 0 163 549 0 551-163 551-166 0-166-551 0-549 166-549z" glyph-name="zero" horiz-adv-x="1241" unicode="0"/><glyph d="M623 199q43-59 55-84t10-52q-2-63-94-63H201q-90 0-97 63-2 27 11.5 52.5T170 199q27 35 33 89t6 173v440q0 121-9.5 171t-43.5 77q-43 33-56.5 44t-26 28.5T61 1257q0 23 17.5 40.5t35 25.5 58.5 25q147 57 231 87.5t132.5 6T584 1339V461q0-119 6-173t33-89z" glyph-name="one" horiz-adv-x="751" unicode="1"/><glyph d="M1067 524q29 0 44-18.5t9-48.5q-4-31-16-187.5T1085 82q-8-45-29.5-63.5T989 0H143q-43 0-65.5 24.5T64.5 92t50.5 90q156 172 323.5 418T641 1030q45 244-104 264-51 4-90-33.5T395 1137q-12-100-80.5-134T160 999q-49 18-70.5 70.5T86 1188q23 74 75 128t120.5 81.5 136 40T557 1450q246 0 388-100.5t124-317.5q-4-43-17.5-88t-27.5-81-46-82-50.5-74.5T864 631t-63.5-67.5-72.5-69-67.5-59.5-72-60-62.5-53h252q119 0 162 79 49 90 82 111 20 12 45 12z" glyph-name="two" horiz-adv-x="1183" unicode="2"/><glyph d="M684 862q225 10 358.5-106.5T1147 420q-29-209-188.5-323.5T578-18q-72 0-149 13T273.5 35.5t-139 83T51 246q-20 66 3.5 117t68.5 71q74 39 145.5 2T358 299q31-154 185-158 98-2 143 74t45 191q0 250-213 256-92 2-113.5 60T446 848q172 184 254 266H438q-119 0-162-82-2-2-10-17.5T256 995t-10-17-12.5-18.5T221 944t-15-14-16.5-10.5T170 911t-20-2q-59 0-54 70 4 33 17.5 183.5T131 1352q10 82 96 82h756q88 0 106.5-61.5T1047 1247z" glyph-name="three" horiz-adv-x="1193" unicode="3"/><glyph d="M1112 571q33 0 56.5-23.5T1192 492v-19q0-33-23.5-56.5T1112 393H987q2-143 39-194 43-59 55.5-84t10.5-52q-2-63-95-63H602q-88 0-94 63-2 27 11 52.5t54 83.5q37 51 39 194H82q-59 0-76.5 45T27 545q53 84 294.5 442.5T567 1354q29 43 55.5 61.5T696 1434h131q92 0 126-36t34-124V571h125zm-498 559q-57-88-186-292.5T258 571h354v545q0 2 1 7t1 7z" glyph-name="four" horiz-adv-x="1212" unicode="4"/><glyph d="M340 840q391 121 614.5-7T1145 434q-25-209-182.5-330.5T578-18q-166 0-326 63.5T49 246q-18 66 5.5 117t66.5 71q74 39 145.5 2T358 299q31-158 185-158 98 0 143 75t45 190q0 145-107.5 212.5T315 659q-102-12-138 25t-21 119q4 27 32.5 222.5T231 1305q14 76 45 102.5t109 26.5h348q135 0 180 57 2 4 11.5 15.5T937 1521t11 12 11.5 12 10.5 10.5 11 9.5l12 6 13.5 6 13.5 3 16 1q29 0 43.5-18.5t10.5-49.5q-2-10-16.5-143t-18.5-174q-4-45-26.5-63.5T958 1114H375q-2-10-35-274z" glyph-name="five" horiz-adv-x="1189" unicode="5"/><glyph d="M469 854q123 61 255 62.5t236.5-52 166-163T1178 449q-16-215-165-341T625-18q-248 0-411 145T43 512q-20 461 295 737 190 168 414 205 152 25 186-33 4-6 6-14 8-41-15.5-69.5t-66.5-46-99-48.5-111.5-70.5T546 1050t-77-196zm141-696q78 0 125 82t47 208.5T735 657t-125 82-125-82-47-208.5T485 240t125-82z" glyph-name="six" horiz-adv-x="1220" unicode="6"/><glyph d="M911 1434q160 0 113-164-10-37-69.5-254T820 523.5 707 109q-18-63-46-86T578 0H430q-86 0-113.5 45T328 180l420 934H406q-119 0-162-82-49-90-82-110-20-12-45-13-59 0-54 70 4 33 17.5 183.5T98 1352q6 45 27.5 63.5T195 1434h716z" glyph-name="seven" horiz-adv-x="1097" unicode="7"/><glyph d="M928 776q152-39 229.5-137t65.5-250q-16-207-174-307T633-18Q377-18 219 82T43 389q-12 152 66.5 250T340 776q-213 82-213 307 0 176 143.5 271.5T633 1450q221 0 364.5-95t143.5-272q0-225-213-307zm-295 508q-76 0-117-59.5T473 1069q0-92 43-157.5T633 846q76 0 118 65.5t42 157.5q0 94-41 154.5T633 1284zm0-1147q86 0 136 76t50 182q-2 111-49 180.5T633 645q-88 0-136-69.5T449 395q0-106 49-182t135-76z" glyph-name="eight" horiz-adv-x="1265" unicode="8"/><glyph d="M1180 924q18-465-299-742Q693 18 469-18 317-43 283 14q-4 6-7 15-8 41 15.5 69.5t66.5 46 99.5 48 112 70.5T675 386t77 196q-123-61-255-62.5t-236.5 52-166 163T43 987q16 213 164.5 338T596 1450q248 0 411-143t173-383zM610 696q78 0 126 82t48 209-48 209-126 82-125-82-47-209 47-209 125-82z" glyph-name="nine" horiz-adv-x="1222" unicode="9"/><glyph d="M252 352q84 0 136-52t52-132q0-82-52-134T252-18 114.5 34 61 168q0 80 53.5 132T252 352zm0 670q84 0 136-52t52-134q0-80-52-132.5T252 651t-137.5 52.5T61 836q0 82 53.5 134t137.5 52z" glyph-name="colon" horiz-adv-x="501" unicode=":"/><glyph d="M250 1022q84 0 136-52t52-134q0-80-52-132.5T250 651t-136.5 52.5T61 836q0 82 52.5 134t136.5 52zm0-670q82 0 135-56t53-146q0-115-48-220.5T258-238q-57-43-95-12t7 92q47 61 61 142-76 6-123 56T61 168q0 80 52.5 132T250 352z" glyph-name="semicolon" horiz-adv-x="499" unicode=";"/><glyph d="M879 922q0-92-117-129-94-29-488-152 395-123 488-152 117-37 117-131v-88q0-37-14.5-46t-65.5 7q-37 14-348.5 134T102 500q-51 18-66.5 33.5T20 580v120q0 31 15.5 46.5T102 780q37 14 348.5 134T799 1049q51 16 65.5 7t14.5-44v-90z" glyph-name="less" horiz-adv-x="940" unicode="&lt;"/><glyph d="M838 920q33 0 56.5-24t23.5-56v-47q0-33-24-56.5T838 713H141q-33 0-56.5 23.5T61 793v47q0 33 22.5 56.5T141 920h697zm0-349q33 0 56.5-23.5T918 492v-48q0-33-24-56t-56-23H141q-35 0-57.5 22.5T61 444v48q0 33 22.5 56t57.5 23h697z" glyph-name="equal" horiz-adv-x="978" unicode="="/><glyph d="M918 700V580q0-31-15.5-46.5T838 500q-238-90-697-269-51-16-65.5-7T61 270v88q0 94 115 131 47 14 225.5 69.5T666 641q-86 27-264.5 82T176 793Q61 830 61 922v90q0 35 14.5 44t65.5-7q459-178 697-269 49-18 64.5-33.5T918 700z" glyph-name="greater" horiz-adv-x="937" unicode="&gt;"/><glyph d="M969 1032q-16-84-67.5-148.5t-107-97T684 709t-76-93q-53-119-73-139-27-25-74-24-129 0-88 221 14 76 92 182.5T569 1057q27 100 3.5 163.5T487 1292q-47 6-70.5-29.5T381 1135q-14-100-84-134t-154-2q-49 18-70.5 70.5T72 1188q82 262 428 262 233 0 371.5-107.5T969 1032zM485 352q84 0 136.5-52T674 168q0-82-52.5-134T485-18 349 34t-52 134q0 80 52 132t136 52z" glyph-name="question" horiz-adv-x="1040" unicode="?"/><glyph d="M1532 1014q88 25 133-13t45-127V553q0-156 34-228.5t118-82.5q100-12 186 87t98 292q6 98-17.5 201.5t-86 212T1883 1228t-258 139-359 54q-205 0-374-58t-275.5-147.5-180.5-203-105.5-217T297 600Q285 184 523.5-80T1251-375q186-12 352 25t270.5 92T2060-147.5t132.5 82T2269-61q51-45-56.5-168T1845-466t-567-114q-354 0-638 141.5T197.5-37 43 555q4 324 173 572.5T650 1502t575 126q225 0 435-66.5t372.5-186.5 255-305 79.5-404q-8-166-52-293t-104.5-199-139-117-146-59T1786-16q-102 0-207.5 51T1421 180Q1300-10 1092-16q-219-8-348.5 137T612 502q2 236 131 382t349 138q123-2 221-78 8 4 14 6 33 10 114 35t91 29zm-348-824q90 0 139 86t49 226q0 141-49 227t-139 86q-92 0-141.5-86T993 502q0-139 49.5-225.5T1184 190z" glyph-name="at" horiz-adv-x="2410" unicode="@"/><glyph d="M1319 461q43-106 89-181t74.5-99.5 45-53.5 12.5-66q-6-61-96-61H989Q889 0 881 61q-6 45 22.5 91.5t47 91.5-6.5 168l-10 28H418q-47-143-35-194t39-98.5T440 61Q426 0 344 0H109Q0 0 0 61q0 33 12.5 55.5t35 46 50 54.5 63.5 94.5T227 461q193 504 244 635 27 88 16.5 121.5t-35 75.5-22.5 77q6 63 96 64h299q68 0 100.5-25t53.5-82q6-16 61.5-157.5T1182 810t137-349zM494 635h364l-180 471z" glyph-name="A" horiz-adv-x="1542" unicode="A"/><glyph d="M991 750q168-6 272.5-102.5T1368 422q0-193-140.5-307.5T803 0H158Q66 0 63 61q-2 43 66 138 27 35 33 88t6 174v512q0 119-6 172t-33 90q-41 57-54.5 82.5T63 1370q2 63 95 64h540q244 0 393.5-95.5T1241 1067q0-123-64.5-207.5T991 750zm-434 374V954q0-117 88-116h29q78 0 124 57t46 143-46 144.5-124 58.5h-29q-88 0-88-117zm152-931q104 0 169.5 62T944 421.5t-65.5 167T709 651h-35q-72 0-94.5-22.5T557 532V313q0-76 22.5-98t94.5-22h35z" glyph-name="B" horiz-adv-x="1388" unicode="B"/><glyph d="M1427 461q31-20-6-115-20-53-54-105.5t-97.5-116-171-103T858-18q-332 0-544 179T55 598Q20 801 75.5 975T253 1259.5 550 1420t368 18q98-18 152-6t69.5 33.5 34 46 45.5 30.5q49 8 70.5-20.5t33.5-98.5q8-45 74-397 8-47-9.5-73.5T1331 928q-33 2-69.5 50t-71.5 107.5-109.5 113.5-175.5 65q-211 20-326.5-132.5T481 745q20-223 129-361t316-148q72-4 134 11t102 39.5 76 55.5 56.5 58.5 46 48T1382 473t45-12z" glyph-name="C" horiz-adv-x="1484" unicode="C"/><glyph d="M655 1434q367 0 589-198t222-519.5-222-519T655 0H158Q66 0 63 61q-2 27 10.5 52.5T129 199q27 35 33 88t6 174v512q0 119-6 172t-33 90q-43 59-55.5 83.5T63 1370q2 63 95 64h497zm45-1239q141 0 231.5 148.5T1022 717t-91 374.5T700 1241h-10q-80 0-107.5-47T555 1018V416q0-127 27.5-174T690 195h10z" glyph-name="D" horiz-adv-x="1486" unicode="D"/><glyph d="M1180 506q39 0 61.5-25.5t14-73-27-148.5-24.5-142q-10-66-40.5-91.5T1069 0H158Q66 0 63 61q-2 43 66 138 27 35 33 88t6 174v512q0 119-6 172t-33 90q-41 57-54.5 82.5T63 1370q2 63 95 64h868q66 0 96.5-27t40.5-92q6-35 23.5-137.5T1212 1026q8-47-13-73.5t-62-26.5q-43 0-82 32.5t-54.5 59T956 1102q-76 137-227 139-102-4-137-54t-35-214V827q115 6 148 35 18 16 38.5 43t35 38 34.5 11q27 0 39-18t14-37.5 2-60.5V625q0-41-2-60.5t-14-38-39-18.5q-20 0-34.5 11t-35 38-38.5 43q-33 29-148 35V461q0-168 37-218t147-50h27q160 0 229 139 2 2 12.5 22.5T1023 379t13.5 22.5T1052 426t16 20.5 18.5 20.5 19.5 15.5 22.5 13.5 24 7 27.5 3z" glyph-name="E" horiz-adv-x="1298" unicode="E"/><glyph d="M1241 1026q8-47-14.5-73.5T1165 926q-16 0-30.5 3t-27.5 11-22.5 14.5T1063 975t-18.5 21.5-17.5 26.5-15 25.5-15.5 29T983 1102q-72 139-231 139h-11q-111 0-148.5-50T555 973V827q117 6 147 35 20 16 41 43t35.5 38 34.5 11q27 0 39-18t14-37.5 2-60.5V625q0-41-2-60.5t-14-38-39-18.5q-20 0-34.5 11t-35 38-41.5 43q-31 29-147 35V379q2-76 9-116t32-64q84-94 80-138-8-61-96-61H158Q66 0 63 61q-2 27 10.5 52.5T129 199q27 35 33 88t6 174v512q0 119-6 172t-33 90q-43 59-55.5 83.5T63 1370q2 63 95 64h895q66 0 96.5-27t40.5-92q6-41 24.5-141.5T1241 1026z" glyph-name="F" horiz-adv-x="1284" unicode="F"/><glyph d="M1552 702q2-47-55-137-27-39-32-69.5t-5-135.5v-41q0-156-149.5-246.5T870-18q-334 0-552 180T55 598Q20 801 75.5 975T253 1259.5 549 1420t366 18q98-18 152.5-6t70 33.5 34 46 47.5 30.5q49 8 69.5-19.5t34.5-99.5q68-369 72-397 8-47-8.5-73.5T1331 928q-33 2-69.5 50t-71.5 107.5-109.5 113.5-175.5 65q-211 20-326.5-132.5T481 745q18-221 127-360t316-149q111-6 178 26v43q0 119-6 172t-33 88q-70 98-68 137 6 61 97 62h368q86-1 92-62z" glyph-name="G" horiz-adv-x="1574" unicode="G"/><glyph d="M1444 461q0-121 6-174.5t33-87.5q70-96 67-138-6-61-96-61h-407q-90 0-97 61-2 41 68 138 27 35 33 88t6 174v174H557V461q0-121 6-174.5t33-87.5q70-96 68-138-6-61-97-61H160Q70 0 63 61q-2 41 68 138 27 35 33 88t6 174v512q0 119-6 172t-33 90q-43 59-56.5 83.5T63 1370q6 63 97 64h407q90 0 97-64 2-27-11.5-51.5T596 1235q-27-37-33-90t-6-172V827h500v146q0 119-6.5 172t-32.5 90q-43 59-56.5 83.5T950 1370q6 63 97 64h407q90 0 96-64 2-27-11-51.5t-56-83.5q-27-37-33-90t-6-172V461z" glyph-name="H" horiz-adv-x="1613" unicode="H"/><glyph d="M557 461q0-121 6-174.5t33-87.5q43-59 55.5-85T662 61q-2-61-95-61H160Q70 0 63 61q-2 27 11.5 54.5T131 199q27 35 33 88t6 174v512q0 119-6 172t-33 90q-43 57-56.5 82.5T63 1370q6 63 97 64h407q92 0 95-64 2-27-10.5-51.5T596 1235q-27-37-33-90t-6-172V461z" glyph-name="I" horiz-adv-x="724" unicode="I"/><glyph d="M1184 1370q2-27-10.5-51.5T1118 1235q-27-37-33-90t-6-172V616q0-332-115.5-483T573-18q-137 0-243.5 34.5t-163.5 89-85 117T64.5 343t54.5 97q53 51 132 44t126-78q18-29 37.5-94.5t47-103.5 81.5-42q90-8 119.5 79T692 575v480q-4 139-39 180-86 92-82 135 8 63 97 64h422q92-1 94-64z" glyph-name="J" horiz-adv-x="1247" unicode="J"/><glyph d="M1266 461q61-104 139-186t112.5-124 28.5-90q-10-61-96-61H995Q893 0 887 61q-6 37 8 72t25.5 59.5-8 93T829 461L707 664 557 502v-41q0-121 6-174.5t33-87.5q43-59 55.5-85T662 61q-2-61-95-61H160Q70 0 63 61q-2 43 66 138 27 37 34 91t7 171v512q0 115-7 170t-34 92q-41 57-54.5 82.5T63 1370q6 63 97 64h407q92 0 95-64 2-27-10.5-51.5T596 1235q-27-37-33-90t-6-172V774l332 371q70 78 88 113.5t3 67.5-15 44q-2 33 22.5 48.5t73.5 15.5h268q47 0 65.5-15.5t10.5-48.5q-8-27-28.5-45t-50.5-34.5-91-68-131-128.5L973 952z" glyph-name="K" horiz-adv-x="1548" unicode="K"/><glyph d="M1180 506q39 0 61.5-25.5t14-73-27-148.5-24.5-142q-10-66-40.5-91.5T1069 0H158Q66 0 63 61q-2 27 10.5 52.5T129 199q27 35 33 88t6 174v512q0 119-6 172t-33 90q-43 59-55.5 83.5T63 1370q2 63 95 64h407q90 0 97-64 2-27-11.5-52.5T596 1235q-27-37-33-90t-6-172V461q0-168 37-218t147-50h25q162 0 231 139 2 2 12.5 22.5T1023 379t13.5 22.5T1052 426t16 20.5 18.5 20.5 19.5 15.5 22.5 13.5 24 7 27.5 3z" glyph-name="L" horiz-adv-x="1277" unicode="L"/><glyph d="M1751 461q0-121 6-174.5t33-87.5q68-94 65-138-6-61-94-61h-409q-88 0-95 61-2 43 66 138 27 35 33 88t6 174v514q-221-532-309-746-6-12-18.5-44.5t-17.5-43-16.5-35T983 74t-17.5-24.5-21.5-23T919.5 12t-31-10T854 0q-63 0-103 50t-75 143Q547 533 362 985V461q0-117 7.5-171t33.5-91q70-96 68-138-6-61-96-61H160Q70 0 63 61q-2 43 66 138 27 37 34 91t7 171v512q0 115-7 170t-34 92q-41 57-54.5 82.5T63 1370q6 63 97 64h319q70 0 112-26t68-93l297-809q285 674 340 801 31 74 65 100.5t112 26.5h288q88 0 94-64 2-27-11-52.5t-54-82.5q-27-37-33-90t-6-172V461z" glyph-name="M" horiz-adv-x="1918" unicode="M"/><glyph d="M1511 1370q2-27-11-52.5t-54-82.5q-27-37-34-92.5t-7-169.5V113q0-49-24.5-81T1309 0h-146q-78 0-114.5 18.5T971 104q-109 180-609 992V461q0-117 7.5-171t33.5-91q43-59 55.5-85T469 61q-2-61-94-61H158Q66 0 63 61q-2 27 10.5 52.5T129 199q27 37 34 91t7 171v512h-2q0 119-6 172t-33 90q-43 59-55.5 83.5T63 1370q2 61 93 64h344q74 0 103.5-17.5T670 1337q27-43 542-897v533q0 115-7 170t-34 92q-43 59-55 83.5t-10 51.5q2 63 94 64h217q92-1 94-64z" glyph-name="N" horiz-adv-x="1574" unicode="N"/><glyph d="M784.5 1450q327.5 0 535.5-200.5T1528 717t-208-533.5T784.5-18 249 183.5 41 717t208 532.5T784.5 1450zm0-1284Q926 166 1008 317.5t82 399.5-82 398.5T784.5 1266 561 1115.5 479 717t82-399.5T784.5 166z" glyph-name="O" horiz-adv-x="1568" unicode="O"/><glyph d="M760 1434q279 0 408.5-139.5T1298 940q0-199-142-332T784 475H557v-96q0-137 39-180 86-92 80-138-8-61-94-61H160Q70 0 63 61q-2 43 66 138 27 37 34 91t7 171v512q0 115-7 170t-34 92q-41 57-54.5 82.5T63 1370q6 63 97 64h600zm-92-752q100 0 159.5 79T887 961q0 123-59.5 200.5T668 1239h-9q-68 0-85-25.5T557 1106V817q0-82 17.5-108.5T659 682h9z" glyph-name="P" horiz-adv-x="1339" unicode="P"/><glyph d="M1382-100q39-4 59.5-20.5T1462-167t-6-55.5-20-66.5q-16-45-31.5-69.5t-44.5-44-75-16.5-116 28Q874-293 676-10 391 23 216 218.5T41 717q0 332 208 532.5T784.5 1450t535.5-200.5T1528 717q0-285-155.5-476.5T958 0q197-75 424-100zM784 1266q-143 0-225-151.5T477 717q0-248 82-399.5T784 166q141 0 223.5 151.5T1090 717t-82.5 398.5T784 1266z" glyph-name="Q" horiz-adv-x="1568" unicode="Q"/><glyph d="M1223 461q61-104 138-186t111.5-124 28.5-90q-6-61-94-61H952Q850 0 844 61q-6 37 8 72t25.5 59.5-8 93T786 461l-43 71H557v-71q0-121 6-174.5t33-87.5q43-59 55.5-85T662 61q-2-61-95-61H160Q70 0 63 61q-2 43 66 138 27 37 34 91t7 171v512q0 115-7 170t-34 92q-41 57-54.5 82.5T63 1370q6 63 97 64h643q281 0 416-127t135-324q0-113-58.5-211T1133 612zM682 725q104 0 168.5 68.5T915 983q0 119-64.5 187.5T682 1239h-23q-66 0-84-31.5T557 1092V872q0-84 18.5-115.5T659 725h23z" glyph-name="R" horiz-adv-x="1503" unicode="R"/><glyph d="M807 858q276-125 380.5-228.5T1270 354q-27-203-177.5-287.5T682-18q-141 0-265 34.5t-201 88-128 118-46 125T84 455q35 37 91 50t111.5-8.5T371 420q4-10 19.5-43t24.5-48.5 27.5-44 38-44 47-33T593 180t83-12q166-12 186 100 20 111-135 193-25 12-115 54t-144 69.5-135 84T207 778t-74 133-18 168q47 397 583 371 219-12 366.5-101t162-186.5T1180 991q-55-51-140.5-43T905 1028q-14 20-42.5 93T791 1229t-129 37q-84 0-129.5-41T496 1112q8-70 77.5-125T807 858z" glyph-name="S" horiz-adv-x="1316" unicode="S"/><glyph d="M1384.5 1026q8.5-47-13-73.5T1309 926q-43 0-82 32.5t-54.5 59-44.5 84.5q-76 137-231 137V461q0-121 7-174.5t34-87.5q68-94 66-138-6-61-97-61H500q-90 0-94 61-2 27 10 52.5t55 85.5q27 35 33 88t6 174v778q-158 0-229-137-2-4-13.5-25.5t-15.5-28-15.5-25.5-17.5-26.5-18.5-21.5-21.5-20.5-22.5-14.5-27.5-11-29-3q-41 0-63.5 26.5T23 1026q29 158 51 289 10 66 40.5 92.5T211 1434h987q66 0 96.5-27t38.5-92q6-41 24.5-141.5t27-147.5z" glyph-name="T" horiz-adv-x="1406" unicode="T"/><glyph d="M1513 1370q2-27-11-52.5t-54-82.5q-27-37-34-92.5t-7-169.5V616q0-315-147.5-474.5T829-18q-317 0-488 158.5T170 616v357q0 119-6 172t-33 90q-43 59-56.5 83.5T63 1370q6 63 97 64h407q90 0 97-64 2-27-11.5-51.5T596 1235q-27-37-33-90t-6-172V616q0-449 334-448 324 0 323 448v357q0 115-7 170t-33 92q-43 59-55.5 83.5T1108 1370q2 63 94 64h217q88-1 94-64z" glyph-name="U" horiz-adv-x="1576" unicode="U"/><glyph d="M1419 1434q109 0 109-64 0-47-30-77.5t-89-108.5-111-211q-47-125-127.5-335t-127-332T991 166Q950 60 914.5 30t-144-30-155 27.5T526 168q-4 12-55 147.5t-126 329T219 973q-41 106-86 180t-72.5 99.5-45 53T2 1370q6 63 96 64h455q100 0 109-64 6-39-14.5-76t-42-65.5-27-94T612 973l240-641 250 641q53 156 42 209t-38 100-19 88q14 63 97 64h235z" glyph-name="V" horiz-adv-x="1527" unicode="V"/><glyph d="M2077 1434q109 0 108-64 0-37-18.5-66.5t-44-54-64.5-96.5-69-180q-215-729-232-780-35-111-78-152T1530 0q-109 0-162 38t-82 155q-6 25-71.5 277.5T1120 842q-59-205-198-668-31-104-76-139T690 0Q584 0 533.5 35T446 184q-33 96-247 793-35 111-76 184.5t-66.5 97-42 49T2 1370q6 63 94 64h484q102 0 108-64 6-39-17.5-74.5t-51-64.5-39-94.5T598 973l168-584q231 799 258 887 14 51 26.5 80.5t38 53.5 60.5 24h143q35 0 57.5-26t28.5-46.5 21-73.5l237-899 170 584q31 109 24 176.5t-30.5 95-43 59-11.5 66.5q12 63 94 64h238z" glyph-name="W" horiz-adv-x="2185" unicode="W"/><glyph d="M1473 201q133-66 120-140-8-61-94-61H891q-90 0-96 61-2 49 67 136 57 74-74 264l-65 92-70-92q-74-98-97.5-145.5T528 225q-2-39 32-82t30-82Q582 0 479 0H139Q37 0 43 61q2 20 10 37t26.5 32 30 22.5 42 24T193 199q59 33 217 233l208 273-184 268q-139 201-258 260-135 66-123 137 8 63 94 64h596q92 0 95-64 2-27-11.5-53.5T770 1235q-27-35-3-92.5T868 973l35-51 49 65q72 94 98.5 139t30.5 86q6 41-33.5 82t-37.5 76q6 63 110 64h340q102 0 96-64-2-20-9-36.5t-26.5-32-29.5-21.5-43-23.5-41-21.5q-63-35-242-262l-159-203 211-309q135-201 256-260z" glyph-name="X" horiz-adv-x="1636" unicode="X"/><glyph d="M1333 1434q109 0 111-64 0-39-22.5-71.5T1364 1237t-90-99.5T1167 973L940 543v-54q0-238 39-290 70-96 68-138-6-61-97-61H543q-92 0-94 61-2 27 10 52.5t55 85.5q39 53 39 290v39L274 973q-74 119-149.5 201.5T23.5 1290 2 1370q6 63 94 64h428q100 0 109-64 4-37-7.5-77t-21.5-69.5 7.5-94T682 973l154-260 131 260q43 86 54 151.5t1 98-19.5 72.5-1.5 75q14 63 97 64h235z" glyph-name="Y" horiz-adv-x="1443" unicode="Y"/><glyph d="M1204 506q41 0 62.5-25.5T1280 408q-8-49-25.5-150.5T1231 117q-10-63-41-90t-96-27H158Q70 0 51.5 60.5T86 193q12 16 664 1046H530q-158 0-229-137-61-115-99-145.5T119 926q-39 0-61.5 26.5T43 1026t26.5 147.5T94 1315q10 66 41 92.5t94 26.5h875q92 0 114.5-58.5T1194 1243q-18-31-664-1050h263q158 0 231 139 59 111 94 141 39 33 86 33z" glyph-name="Z" horiz-adv-x="1323" unicode="Z"/><glyph d="M483 1358H381V27h102q33 0 56.5-23.5T563-53v-19q0-35-23.5-57.5T483-152H141q-35 0-57.5 23T61-72v1530q0 33 24 56.5t56 23.5h342q33 0 56.5-23.5T563 1458v-18q0-35-23.5-58.5T483 1358z" glyph-name="bracketleft" horiz-adv-x="624" unicode="["/><glyph d="M803-18q16-43-4.5-69T741-113h-18q-61 0-94 80-33 84-553 1458-43 113 53 113h18q35 0 56.5-18.5T246 1448q31-75 557-1466z" glyph-name="backslash" horiz-adv-x="872" unicode="\"/><glyph d="M485 1538q33 0 56.5-23.5T565 1458V-72q0-33-23.5-56.5T485-152H141q-33 0-56.5 24T61-72v19q0 33 24 56.5T141 27h103v1331H141q-33 0-56.5 24.5T61 1440v18q0 33 24 56.5t56 23.5h344z" glyph-name="bracketright" horiz-adv-x="626" unicode="]"/><glyph d="M676 1049q39-63-31-64h-14q-12 0-22.5 1t-19.5 4-14.5 5-13.5 11.5-11 12.5-14.5 17.5T518 1057q-127 143-143 160-8-10-55.5-62.5T233 1057q-6-6-17-20.5t-14-17.5-11.5-12.5T177 995t-14-5-19.5-4-22.5-1h-15q-70 0-30 64 119 178 221 321 4 4 9 12.5t7 12.5 6.5 9 6.5 8 6 7 6 5 6 4.5 7 3.5 8.5 1 9.5 1h12q6 0 12-1t10.5-2 8.5-5.5 7-6.5 8-9 7-10 10.5-14.5T455 1370q102-143 221-321z" glyph-name="asciicircum" horiz-adv-x="751" unicode="^"/><glyph d="M979-18q33 0 56.5-24t23.5-56v-19q0-33-23.5-56.5T979-197H141q-33 0-56.5 23.5T61-117v19q0 33 22.5 56.5T141-18h838z" glyph-name="underscore" horiz-adv-x="1120" unicode="_"/><glyph d="M76 1335q27 68 88 86.5t131-22.5q80-55 205-162 6-6 17-15.5t15.5-13.5 12.5-11 11-12 7-11.5 4-11.5-1-12-5-15q-12-31-43-34t-76 5q-174 12-258 33-80 16-109.5 75.5T76 1335z" glyph-name="grave" horiz-adv-x="628" unicode="`"/><glyph d="M1051 244q18-18 46.5-34.5t40-31 9.5-41.5q-2-66-72.5-110.5T915-18q-213 0-262 131Q569-18 383-18q-164 0-258 77.5T31 264q0 193 158.5 272.5T639 616v29q0 68-4 107t-24.5 71.5T551 862q-109 14-141-86-55-176-209-123-47 16-72 64.5t0 109.5q74 193 442 193 440 0 441-426V420.5l1-39.5 3-34.5 5-33 7-27 9.5-24.5 13.5-18zM653 344v82q0 47-21.5 57.5T557 481q-59-10-101-53t-46-109q-4-68 27.5-107.5T535 172q118 0 118 172z" glyph-name="a" horiz-adv-x="1159" unicode="a"/><glyph d="M748 1020q217 8 347-137.5T1225 502q0-233-130-380T748-18q-190 8-310 165-39-57-97-111T233-18q-82 0-100 57-6 20-8 85.5t0 186.5 2 150v428q0 121-6 174t-33 88q-68 94-65 137 6 61 96 90 33 10 113.5 35t91.5 29q86 25 132-13t46-126V926q103 92 246 94zm-93-832q90 0 139.5 86T844 502q0 139-49.5 225T655 813q-92 0-141-85t-49-226.5T514 274t141-86z" glyph-name="b" horiz-adv-x="1265" unicode="b"/><glyph d="M510 833.5Q436 821 402.5 727T395 494q27-145 125-217t216-58 208 98q45 41 76 17.5t6-80.5Q975 139 858 60.5T573-18q-225 0-380.5 125.5T23 471Q9 711 168.5 865.5T565 1020q125 0 231.5-41t163-103.5 75-139.5-33.5-146q-33-51-98-67.5t-126.5 15T698 641q-25 111-69.5 158T510 833.5z" glyph-name="c" horiz-adv-x="1079" unicode="c"/><glyph d="M1155 199q43-59 55.5-85t10.5-53q-2-61-95-61H903Q776 0 750 86 644-12 498-18q-219-6-348.5 139T20 501.5t129.5 381T498 1020q141-2 243-94 0 172-39 225-68 94-65 137 6 61 96 90 33 10 114 35t91 29q86 25 132-13t46-126V461q0-121 6-174t33-88zm-565-11q90 0 139 86t49 228q0 139-49 225t-139 86q-92 0-141.5-85T399 501.5 448.5 274 590 188z" glyph-name="d" horiz-adv-x="1243" unicode="d"/><glyph d="M963 303q45 43 76.5 18.5t4.5-81.5Q993 125 882.5 53.5T602-18q-109 0-209 31.5t-182 92T78 264 23 487q-8 254 159.5 398.5T592 1020q209-6 327.5-123T1053 635q10-106-17.5-148.5T911 444H406q23-125 126-187t226-48 205 94zM561 854q-115-8-153-186-4-16 2-29.5t20-13.5h240q37 0 52 25.5t3 70.5q-35 145-164 133z" glyph-name="e" horiz-adv-x="1097" unicode="e"/><glyph d="M580 1532q193 6 284.5-97.5T907 1229q-25-51-84-65.5t-113.5 17T647 1280q-10 78-32.5 111.5T549 1423q-72-2-76-98 0-57 45-155.5t57-165.5h181q33 0 56.5-24t23.5-56v-19q0-33-24-56.5T756 825H586V461q0-180 14-219 8-25 25-43 86-92 80-138-8-61-95-61H203q-90 0-97 61-2 43 66 138 27 37 34 91t7 171v364H100q-33 0-56.5 23.5T20 905v19q0 33 24 56.5t56 23.5h103q-18 279 78 400.5T580 1532z" glyph-name="f" horiz-adv-x="821" unicode="f"/><glyph d="M618 150h172.5l85-5.5 86-14.5 69.5-28.5 59.5-46 33-67.5 9.5-92q-6-102-64.5-176t-151-112T729-446.5 528.5-463 334-450.5t-172 40-125 82T2-201Q14-86 121-47 21 27 45 150q20 111 172 180Q76 443 76 623t134 288.5T553 1020q61 0 121-12 6 197 141 252 104 41 182-5.5t62-138.5q-12-61-64.5-95t-111.5-3q-18 10-38 25.5t-29 22.5-24.5 12-25.5-5q-20-14-2-88 125-45 195.5-139t70.5-223q0-178-134-287T553 227q-139 0-244 49-41-47-26-77 20-49 335-49zm-65 698q-68 0-101.5-61.5t-33.5-164 34.5-164T553 397q68 0 101.5 61.5T688 623q0 225-135 225zm22-1133q244-6 244 76 0 18-14 29.5T762-165t-55.5 4-67.5 0-64-1q-92 2-148 9.5T343-137t-38 8q-14-33-14-53-1-95 284-103z" glyph-name="g" horiz-adv-x="1134" unicode="g"/><glyph d="M1219 199q70-96 67-138-6-61-96-61H797q-90 0-97 61-2 27 11.5 54.5T768 199q27 35 33 88t6 174v20q0 59-1 89t-8 83.5-21.5 80-43 48T662 803q-139 0-140-197V461q0-121 6.5-174.5T561 199q43-59 55.5-85T627 61q-2-61-95-61H139Q49 0 43 61q-2 43 66 138 27 37 34 91t7 169v430q0 117-7.5 171t-33.5 91q-68 94-66 137 6 61 96 90 33 10 114 35t91 29q88 25 133-12t45-127V891q133 129 297 129 184 0 272.5-100.5T1180 682V461q0-121 6-174t33-88z" glyph-name="h" horiz-adv-x="1308" unicode="h"/><glyph d="M561 199q68-94 66-138-6-61-95-61H137Q45 0 43 61q-2 27 10.5 52.5T109 199q27 35 32.5 88t5.5 174q0 119-6 172t-32 88q-43 59-55.5 84.5T43 858q2 59 94 90 141 45 207 64 86 25 132-12t46-126V461q0-121 6-174t33-88zm-256 909q-96 0-163.5 62.5T74 1321t67.5 149.5T305 1532t165-61.5 69-149.5-69-150.5-165-62.5z" glyph-name="i" unicode="i"/><glyph d="M350 1012q86 25 132-12t46-126V88q0-303-79.5-422T162-461q-195-6-287 97.5T-168-158q25 51 84 65.5t114.5-17T94-209q10-78 31.5-111.5T190-352q76 4 76 98 0 57-17.5 104.5t-39 77-38.5 94T154 174v287q0 119-6.5 172T115 721q-68 94-66 137 6 61 94 90 141 46 207 64zm-36.5 96q-96.5 0-165 62.5T80 1321t68.5 149.5 165 61.5 164-61.5T545 1321t-67.5-150.5-164-62.5z" glyph-name="j" horiz-adv-x="606" unicode="j"/><glyph d="M1208 197q41-37 57.5-54.5t28-38T1305 61q-2-61-95-61H842q-76 0-110 16.5T705 80q4 27 30.5 63.5T745 215q-20 41-102 172l-55 86-66-61q0-160 39-213 68-94 66-138-2-61-95-61H137Q45 0 43 61q-2 43 66 138 27 35 32.5 88t5.5 174v428q0 121-6 174t-32 88q-68 94-66 137 2 59 94 90 33 10 115 35t92 29q86 25 132-13t46-126V625l127 125q49 49 63.5 79.5T720 897t-7 49q4 57 88 58h280q82 0 82-58 0-43-43-70.5T991 809t-147-92l-4-6 170-250q18-27 49-70t46-64.5 35.5-49 36-47T1208 197z" glyph-name="k" horiz-adv-x="1286" unicode="k"/><glyph d="M561 199q43-59 55.5-85T627 61q-2-61-95-61H139Q49 0 43 61q-2 43 66 138 27 35 32.5 88t5.5 174v428q0 121-6 174t-32 88q-68 94-66 137 6 61 96 90 33 10 114 35t91 29q86 25 132-13t46-126V461q0-121 6-174t33-88z" glyph-name="l" unicode="l"/><glyph d="M1847 199q43-59 55.5-85t10.5-53q-2-61-94-61h-394q-90 0-96 61-2 43 66 138 27 35 33 88t6 174v20q0 14 1 61.5t0 66-4.5 57.5-11.5 56-21.5 39.5-36 32-52.5 9.5q-70 0-107-51.5T1165 606V461q0-121 6.5-174.5T1204 199q68-94 66-138-6-61-96-61H780q-92 0-94 61-2 27 10.5 52.5T752 199q27 35 33 88t6 174v20q0 14 1 61.5t0 66-4.5 57.5-11.5 56-21.5 39.5-36 32T666 803q-70 0-108-51.5T520 606V461q0-121 7.5-174.5T561 199q68-94 66-138-6-61-97-61H137Q45 0 43 61q-2 27 10.5 52.5T109 199q27 35 32.5 88t5.5 174q0 119-6 172t-32 88q-43 59-55.5 84.5T43 858q2 59 94 90 141 45 207 64 84 23 128-10t48-115q137 133 305 133 229 0 305-168 152 168 338 168 96 0 166-29.5t106-81 52-108 16-119.5V461q0-121 6-174t33-88z" glyph-name="m" horiz-adv-x="1935" unicode="m"/><glyph d="M1219 199q70-96 67-138-6-61-96-61H797q-90 0-97 61-2 41 68 138 27 35 33 88t6 174v20q0 59-1 89t-8 83.5-21.5 80-43 48T662 803q-139 0-140-197V461q0-121 6.5-174.5T561 199q43-59 55.5-85T627 61q-2-61-95-61H139Q49 0 43 61q-2 43 66 138 27 37 34 90t7 166q0 209-41 266-68 94-66 137 6 61 96 90 125 43 205 64 168 45 178-123 131 131 297 131 184 0 272.5-100.5T1180 682V461q0-121 6-174t33-88z" glyph-name="n" horiz-adv-x="1308" unicode="n"/><glyph d="M580 1020q256 0 406.5-139.5t150.5-379T986.5 122 580-18 172 122 20 501.5t152 379T580 1020zm0-844q84 0 130 90t46 235.5T710 736t-130 89q-86 0-132.5-89T401 501.5 447.5 266 580 176z" glyph-name="o" horiz-adv-x="1177" unicode="o"/><glyph d="M748 1020q217 8 346-137.5T1225 502q-2-236-131-381.5T748-18q-145 6-246 96V12q0-125 6-179t33-81q86-92 80-137-8-61-95-61H117q-88 0-94 61-2 43 65 137 27 35 33 88.5T127 12v449q0 119-6 172t-33 88q-68 94-65 137 6 61 94 90 141 45 207 64 147 43 174-90 107 96 250 98zm-93-830q90 0 139.5 86T844 501.5 794.5 727 655 813q-92 0-141-85t-49-226.5T514 275t141-85z" glyph-name="p" horiz-adv-x="1265" unicode="p"/><glyph d="M1155-248q68-94 66-137-6-61-95-61H717q-86 0-94 61-6 45 79 137 27 27 33 81t6 179v66Q641-12 496-18q-217-6-346.5 139T20 501.5t129.5 381T496 1020q190-6 309-164 41 57 98.5 109.5T1010 1020q82 0 100-57 6-20 8-86t0-186-2-148V12q0-119 6-172t33-88zM588 190q92 0 141 85t49 226.5T729 728t-141 85q-90 0-139.5-86T399 501.5 448.5 276 588 190z" glyph-name="q" horiz-adv-x="1243" unicode="q"/><glyph d="M764 1020q104 0 172-52.5t76-125T983 692q-43-76-133-84t-150 68q-16 23-30.5 52.5t-20.5 47-21.5 29.5-39.5 12q-37 0-50.5-25.5T522 713V461q0-123 7.5-178.5T561 199q88-90 80-138-10-61-94-61H139Q49 0 43 61q-2 43 66 138 27 35 32.5 87t5.5 169q0 119-7 175t-31 91q-68 94-66 137 6 61 96 90 125 43 205 64 154 43 174-99 99 107 246 107z" glyph-name="r" horiz-adv-x="1036" unicode="r"/><glyph d="M608 643q215-86 269-121 141-90 120-243-4-23-10-48-33-127-155.5-188T528-18Q405-18 304 7.5T142.5 75 49 167 20.5 267 61 358q45 53 119 40t101-93q20-63 58-99t65.5-44 82.5-17q154-20 172 58 6 23-4 40t-39.5 33.5T558 304t-80 30.5-89 36.5q-41 18-67.5 31.5t-68.5 38-68.5 48T131 548t-38 73.5-11 88T100 815q76 225 455 205 94-6 171-32.5T846 922t65.5-84 17.5-90.5-34-79.5q-33-43-104.5-38T686 692q-6 10-26.5 65.5t-49 77T522 860q-111 12-125-61-8-39 40-73t171-83z" glyph-name="s" horiz-adv-x="1040" unicode="s"/><glyph d="M780 252q16-27 15.5-60.5T764 121t-72-67.5-102.5-51T463-18q-141 0-237.5 80.5T129 328v497H59q-35 0-57 23.5T-20 905v19q0 33 23.5 56.5T59 1004h41q61 0 93 38.5t39.5 85 33 85T338 1251h82q49 0 65.5-22.5T502 1155v-151h170q33 0 56.5-24t23.5-56v-19q0-33-23.5-56.5T672 825H502V342q0-80 56-104.5T686 256q63 33 94-4z" glyph-name="t" horiz-adv-x="839" unicode="t"/><glyph d="M1198 244q16-14 46-31.5t40-32 8-43.5q-2-66-71.5-110.5T1061-18q-213 0-262 131-43-63-127-97T487-18Q303-18 215 82t-88 240v139q0 119-6 172t-33 88q-43 59-55.5 84.5T23 858q2 59 94 90 141 45 207 64 86 25 131-12t45-126V522q0-61 1-91t8-82 21.5-78.5 44-48T647 201q137 0 137 196v64q0 119-6 172t-33 88q-43 59-55 84.5T680 858q2 59 94 90 141 45 207 64 86 25 132-12t46-126V419.5l1-42 3-35.5 5-32.5 7.5-27 9.5-23.5 13-15z" glyph-name="u" horiz-adv-x="1304" unicode="u"/><glyph d="M1049 1004q31 0 47-16.5t14-41.5q-2-39-25.5-64.5T1019 802t-75-149q-35-96-81-220t-74.5-205-32.5-91q-31-82-76-109.5T551 0q-59 0-92 6t-69 35-58 86q-2 8-27.5 74.5t-65.5 172T166 565Q107 723 35 817 8 854 0 867.5t-14 33-4 41.5q6 61 108 62h299q68 0 97.5-14.5T510 928q-2-25-26.5-71T473 774l164-471 129 350q35 115 31 149t-26.5 72.5T748 946q0 57 81 58h220z" glyph-name="v" horiz-adv-x="1132" unicode="v"/><glyph d="M1645 946q-2-33-25-58.5t-58.5-82.5-62.5-152q-143-489-153-516-31-82-76-109.5T1141 0q-45 0-72 3t-59.5 14.5-54 38T922 127q-57 217-101 373-90-350-94-363-23-84-70-110.5T522 0q-59 0-92 6t-68.5 35-56.5 86q-16 41-141 412-43 125-67.5 178T37 817q-25 35-35 50.5t-16 34-4 40.5q8 61 110 62h326q68 0 97.5-14.5T541 928q-4-29-41-73t-27-81l135-471q147 547 166 610 12 51 30.5 71t61.5 20h117q43 0 59.5-15.5T1071 928l156-625 100 350q27 113 13.5 152t-38 73.5T1282 946q4 57 80 58h219q35 0 50.5-16.5T1645 946z" glyph-name="w" horiz-adv-x="1667" unicode="w"/><glyph d="M1100 168q92-53 80-111-8-57-66-57H659q-63 0-67 57-2 45 47 109 12 20 7 37.5T614 256l-96 119-69-94q-47-61-52-95-4-27 17.5-65.5T434 57q-8-57-76-57H90Q55 0 37.5 16.5T23 57q2 18 8 33.5t25.5 31T83 141t36 21q6 4 10 6 76 41 166 154l129 167-184 226q-78 94-125 121-90 49-82 110 8 57 67 58h453q63 0 68-58 4-49-48-108-20-29 31-90l60-74 43 59q39 49 43 84 4 27-17.5 66T713 946q8 57 78 58h266q35 0 52-17.5t15-40.5q0-10-2-18t-7-15.5-8-13.5-12.5-13-12.5-11.5-14-11.5-14-9-17.5-9-16.5-9q-80-43-168-154l-94-125 211-262q76-96 131-127z" glyph-name="x" horiz-adv-x="1202" unicode="x"/><glyph d="M1112 946q-2-29-18.5-51.5t-39-43-55-72.5T938 653Q799 295 735 119q-16-45-47-135t-46-132-46-105.5-58.5-95.5-71.5-62.5-97-43.5q-117-27-244 10T-16-317q-10 66 22.5 110.5T92-152q55 10 96-6t61.5-41.5 50.5-45 65-15.5q20 4 35.5 15.5t40 58.5T494-53q-10 25-62.5 132t-117 242.5T201 561q-35 72-61.5 116T75 768t-38 49q-25 35-35 50.5t-16 34-4 40.5q8 61 110 62h297q68 0 97.5-14.5T512 928q-2-20-22.5-68.5T485 774l166-399 103 278q39 123 34.5 162t-24 72-14.5 59q2 33 20 45.5t59 12.5h220q63-1 63-58z" glyph-name="y" horiz-adv-x="1132" unicode="y"/><glyph d="M952 397q29 0 43.5-18.5T1006 328q-25-172-37-246-6-45-27.5-63.5T874 0H131Q61 0 46 47t26 105q143 213 448 659H403q-119 0-161-82-2-2-10.5-17.5T221 692t-10-17-12-18.5-12.5-15.5-15.5-14-16.5-10.5T135 608t-20-2q-29 0-43.5 18.5T61 676q25 172 37 246 6 45 27.5 63.5T193 1004h675q70 0 88.5-48.5T936 852q-8-12-447-659h175q119 0 161 81 2 2 10.5 17.5T846 311t10 17.5 12 18.5 12.5 15.5T896 377t16.5 10 19.5 8 20 2z" glyph-name="z" horiz-adv-x="1048" unicode="z"/><glyph d="M606 27q94 0 94-93 0-39-24.5-62.5T606-152h-98q-170 0-240.5 90.5T197 223v209q0 94-17.5 126T100 604q-80 14-80 80v18q0 63 80 80 61 14 79 46t18 126v207q0 197 70.5 287t240.5 90h98q94 0 94-88 0-90-94-90-76 0-96.5-45T489 1126V991q0-164-67.5-231.5T195 692q160 0 227-66.5T489 395V260q0-143 20.5-188T606 27z" glyph-name="braceleft" horiz-adv-x="761" unicode="{"/><glyph d="M160 1450q33 0 56.5-22.5T240 1370V-119q0-33-23.5-56.5T160-199h-19q-35 0-57.5 23.5T61-119v1489q0 35 22.5 57.5T141 1450h19z" glyph-name="bar" horiz-adv-x="301" unicode="|"/><glyph d="M664 782q80-18 79-80v-18q0-66-79-80-63-14-81-46t-18-126V223q0-195-70.5-285T254-152h-98q-45 0-70 24T61-66q0 92 95 93 76 0 96 45t20 188v135q0 164 68 230.5T567 692q-160 0-227.5 67.5T272 991v135q0 143-20.5 188.5T156 1360q-94 0-95 90 0 88 95 88h98q170 0 240.5-90t70.5-287V954q0-94 18-126t81-46z" glyph-name="braceright" horiz-adv-x="763" unicode="}"/><glyph d="M741 954q37 35 75 26t34-48q-2-33-13.5-68t-36-71.5-72.5-58T616 717q-45 4-114.5 29.5t-120.5 45T273.5 805 178 748q-39-47-84-28t-28 73q27 94 77 150t154 58q55 0 122.5-25.5t116-48T640 907t101 47z" glyph-name="asciitilde" horiz-adv-x="913" unicode="~"/><glyph d="M268 651q-84 0-136 52.5T80 836q0 82 52 135t136 53 137.5-53T459 836q0-80-53.5-132.5T268 651zm199-788q25-137-28.5-222t-170-85-170 85T70-137q57 305 96 522 23 121 43 144.5t59 23.5q49 0 66.5-30.5T367 410q2-16 4-25 41-219 66.5-358T467-137z" glyph-name="exclamdown" horiz-adv-x="536" unicode="¡"/><glyph d="M965 532q45 43 76.5 18.5t5.5-81.5q-49-109-159-185.5T623 199V39q0-23-17.5-40T565-18h-2q-23 0-40 17t-17 40v164q-195 25-323 148.5T43 688q-14 217 120 366.5T506 1231v164q0 23 17.5 39t39.5 16h2q23 0 40.5-16.5T623 1395v-160q117-6 215-48t150-104.5 67.5-136.5-33.5-141q-33-51-98.5-67.5t-126 15T721 856q-35 145-98 180V451q84-29 177-8t165 89zM416 711q20-115 90-189v520q-61-27-87-116.5T416 711z" glyph-name="cent" horiz-adv-x="1099" unicode="¢"/><glyph d="M1167 524q29 0 44.5-18.5t9.5-50.5q-4-31-16.5-186.5T1186 82q-8-45-28.5-63.5T1092 0H139Q49 0 43 61q-4 59 68 138 74 84 114 258 14 78 21 186H100q-23 0-40 16.5T43 698v2q0 25 17.5 41.5T100 758h150q-4 168-12 260-14 156 54 256t183 139 273 39q156 0 292-62.5t179-201.5q20-68-1.5-119t-70.5-70q-86-33-154.5 1T911 1135q-12 88-52 125.5t-91 31.5q-76-8-103.5-80.5T651 1028q18-145 0-270h334q23 0 39-16.5t16-41.5v-2q0-23-16-39t-39-16H629q-57-209-189-324h439q117 0 163 82 20 39 30.5 58.5t37 42T1167 524z" glyph-name="sterling" horiz-adv-x="1290" unicode="£"/><glyph d="m1057 362 84-83q39-41 0-80l-2-2q-16-16-40-16.5t-40 16.5l-90 90q-137-94-348-94-207 0-349 94l-90-90q-16-16-39.5-16.5T102 197l-2 2q-39 39 0 80l84 83Q61 497 61 715q0 219 125 354l-86 86q-39 41 0 80l2 2q16 16 40 16t40-16l92-92q143 92 347 92 207 0 346-92l92 92q16 16 39.5 16t40.5-16l2-2q39-39 0-80l-86-86q127-137 127-354 0-216-125-353zm-436 27q86 0 132 89t46 237q0 145-46 235t-132 90q-84 0-131.5-90T442 714.5 488.5 479 621 389z" glyph-name="currency" horiz-adv-x="1243" unicode="¤"/><glyph d="M1335 1434q109 0 109-64 0-39-22.5-71.5T1365 1237t-90-99.5T1169 973L977 608h184q25 0 41.5-16.5T1219 553v-4q0-23-16.5-39t-41.5-16H942v-72h219q25 0 41.5-17.5T1219 365v-3q0-23-16.5-40t-41.5-17H948q10-76 33-106 43-59 55.5-85t10.5-53q-2-61-95-61H545q-90 0-96 61-2 43 65 138 27 35 33 106H334q-23 0-40.5 17.5T276 362v3q0 23 17.5 40t40.5 17h219q2 20 2 67v5H334q-23 0-40.5 16T276 549v4q0 23 17.5 39t40.5 16h170L276 973q-59 96-119.5 168.5t-91 101.5-49 59.5T2 1372q6 61 96 62h426q100 0 111-62 4-37-7.5-78t-21.5-70.5 7.5-94T684 973l154-258 129 258q43 86 54 151.5t2 99-18.5 72.5-.5 74q14 63 96 64h235z" glyph-name="yen" horiz-adv-x="1443" unicode="¥"/><glyph d="M160 1450q33 0 56.5-23.5T240 1370V813q0-33-23.5-56.5T160 733h-19q-33 0-56.5 23.5T61 813v557q0 35 22.5 57.5T141 1450h19zm0-932q33 0 56.5-23.5T240 438v-557q0-33-23.5-56.5T160-199h-19q-35 0-57.5 23.5T61-119v557q0 33 24 56.5t56 23.5h19z" glyph-name="brokenbar" horiz-adv-x="301" unicode="¦"/><glyph d="M1286 592q-29-227-231-311 172-154 149-357-14-115-65.5-192.5t-133-116.5-176-52.5T618-444q-309 14-458 174Q56-161 90-57q12 41 47 69 57 51 140 44t135-79q16-25 36.5-73.5t37-79.5 60.5-57.5T655-260q84-2 129 39t37 115q-8 70-78.5 125T510 145Q234 270 129.5 373.5T47 651q29 225 232 314-172 152-150 354 49 397 586 371 219-12 366.5-101.5T1243 1402t-47-171q-57-51-140-44t-134 79q-14 20-43 94t-72 108.5-129 36.5q-84 0-129-41t-37-114q8-68 79-123.5T823 1098q276-125 381-228.5t82-277.5zm-696-47q27-14 108.5-52T827 430q43 27 52 76 10 57-29 108.5T743 700q-25 12-106.5 50T506 813q-43-23-51-76-10-57 29.5-108T590 545z" glyph-name="section" horiz-adv-x="1333" unicode="§"/><glyph d="M233.5 1452q75.5 0 122.5-46t47-120q0-72-47-119t-122.5-47-124 47T61 1286q0 74 48.5 120t124 46zm395.5 0q76 0 123-46t47-120-47-120-123-46-123 46-47 120 47 120 123 46z" glyph-name="dieresis" horiz-adv-x="860" unicode="¨"/><glyph d="M1454 530q20-14-4-84-14-39-39-75.5t-71-82.5-123.5-75-174.5-29q-240 0-394 129T461 629q-35 197 44 349t235.5 221 342.5 38q72-12 111-3t50 24.5 24.5 33 34.5 21.5q37 8 52-13.5t23-72.5q6-33 26.5-144.5T1432 938q4-35-8.5-53.5T1384 868q-25 0-51 36t-51 79-80 83-127 46q-152 14-235.5-96.5T770 735q12-160 91-260t229-108q72-4 130 17.5t86.5 52 58.5 59 44 39.5 45-5zm-452.5 1149q397.5 0 680-282.5t282.5-680-282.5-679-680-281.5-679 281.5T41 716.5t281.5 680 679 282.5zm0-1781q339.5 0 580.5 239.5T1823 717t-241 580.5-580.5 240.5T422 1297.5 182 717t240-579.5T1001.5-102z" glyph-name="copyright" horiz-adv-x="2004" unicode="©"/><glyph d="M100 600q225 156 414 283 82 51 82-39v-19q0-20-3-34.5t-5-23.5-13.5-22.5T559 727t-25.5-21.5T504 680Q379 571 299 498q80-74 205-183 8-8 25.5-21t22.5-18.5 16.5-16.5 13.5-17 7-17.5 6-25 1-29.5v-18q0-37-17.5-49.5T514 115q-82 53-414 282-8 6-19 13.5T64.5 422 51 432t-11 10-8 9.5-7 10.5-3.5 12-1.5 15v17q0 10 2.5 19.5T28 541t12 14 14 12 20.5 15.5T100 600zm478 0q221 156 413 283 80 51 80-39v-19q0-18-3-33.5t-5-24.5-13.5-21.5T1034 728t-24.5-22.5T981 680Q862 580 774 498q88-82 207-183 8-8 24.5-21t22.5-18.5 16.5-15.5 12.5-17 7-18.5 6-25 1-29.5v-18q0-37-17.5-49.5T991 115q-129 82-413 282-6 4-17.5 12.5T545 420t-13.5 8-11.5 9-7 8.5-7 9.5-4 10-3 11-1 13v17q0 10 1 17t5 14.5 7 11.5 11 11 13.5 11 20 13.5T578 600z" glyph-name="guillemotleft" horiz-adv-x="1132" unicode="«"/><glyph d="M1339 543q45-76 100.5-134.5t81-89T1542 254q-6-45-69-45h-330q-74 0-80 45-4 27 7 51.5t19.5 43-6 67.5-59.5 127l-33 53H856v-53q0-150 29-189 49-70 47-100-2-45-68-45H569q-68 0-69 45-2 31 47 100 29 39 28 189v370q0 152-28 191-49 68-47 98 2 45 69 45h465q203 0 301.5-91t98.5-234q0-82-42-153t-118-116zM946 735q76 0 123 49.5t47 137.5q0 86-47 136t-123 50h-14q-49 0-62.5-23.5T856 999V842q0-61 13.5-84t62.5-23h14zm55.5-979q-397.5 0-679 281.5T41 716.5t281.5 680 679 282.5 680-282.5 282.5-680-282.5-679-680-281.5zm0 1782Q662 1538 422 1297.5T182 717t240-579.5T1001.5-102 1582 137.5 1823 717t-241 580.5-580.5 240.5z" glyph-name="registered" horiz-adv-x="2004" unicode="®"/><glyph d="M696 1360q33 0 56.5-22.5T776 1280v-33q0-35-23.5-57.5T696 1167H141q-33 0-56.5 23.5T61 1247v33q0 33 24 56.5t56 23.5h555z" glyph-name="macron" horiz-adv-x="837" unicode="¯"/><glyph d="M409.5 1450q159.5 0 254-88t94.5-237.5T663.5 888t-254-87-254 87T61 1124.5t94.5 237.5 254 88zm0-543q67.5 0 103.5 60.5t36 156.5q0 98-36 158.5T409.5 1343 307 1283t-35-158.5 35-158T409.5 907z" glyph-name="degree" horiz-adv-x="819" unicode="°"/><glyph d="M838 207q35 0 58.5-23.5T920 127V80q0-33-25-56.5T838 0H141q-33 0-56.5 23.5T61 80v47q0 33 24 56.5t56 23.5h697zm0 653q33 0 57.5-23.5T920 780v-47q0-33-24-56.5T838 653H594V408q0-33-23.5-56.5T514 328h-47q-33 0-56.5 23.5T387 408v245H141q-33 0-56.5 23.5T61 733v47q0 33 24 56.5t56 23.5h246v244q0 35 23.5 57.5T467 1184h47q33 0 56.5-23.5T594 1104V860h244z" glyph-name="plusminus" horiz-adv-x="980" unicode="±"/><glyph d="M553 1335q31-61 1-120.5T444 1139q-84-20-258-33-45-8-75.5-5T68 1135q-4 8-5.5 15t-1.5 12 4.5 11.5T73 1185t11 12 12 11 15.5 13.5T129 1237q125 106 205 162 70 41 131 22.5t88-86.5z" glyph-name="acute" horiz-adv-x="628" unicode="´"/><glyph d="M1208 1450q33 0 56.5-22.5t23.5-57.5v-18q0-33-23.5-56.5T1208 1272h-190V63q0-33-23.5-57T938-18h-18q-35 0-58.5 23.5T838 63v1209H653V63q0-33-23.5-57T573-18h-18q-33 0-56.5 23.5T475 63v484q-182 8-308 139T41 999q0 186 133 318.5T494 1450h714z" glyph-name="paragraph" horiz-adv-x="1349" unicode="¶"/><glyph d="M72-375q-18 23-7 58.5t56 33.5q106-4 117 56 10 63-62 63-23 0-35 7t-8 26L162 0h143q-4-18-14-82 129 0 178-52t39-140q-12-94-82-140.5T266-459q-141 0-194 84z" glyph-name="cedilla" horiz-adv-x="571" unicode="¸"/><glyph d="M1032 600q10-6 25.5-17.5T1078 567t14.5-12 12.5-14 5-15.5 2-19.5v-17q0-8-1-15t-5-14-7-11.5-12.5-12.5-14.5-11-18.5-13.5T1032 397Q700 168 618 115q-45-25-63-12.5T537 152v18q0 16 1 29.5t6 25 7 17.5 13 17l16.5 16.5 23 18.5 25.5 21q125 109 205 183-80 74-205 182-8 8-29.5 25.5t-26 21.5-15.5 17.5-13 22.5-5 23.5-3 34.5v19q0 90 81 39 189-127 414-283zm-477 0q8-6 19.5-14t17.5-11.5 13-9.5 11.5-10 8.5-10 6-11.5 3-12.5 1-15v-17q0-8-1-13t-3-11-4-10-7.5-9.5-7.5-8.5-11-9-13-8-15.5-10.5T555 397Q270 196 141 115q-47-25-63.5-12.5T61 152v18q0 16 1 29.5t6.5 25T76 243t12 17 16.5 15.5T127 294t25 21q119 100 206 183-88 82-206 182-10 8-25.5 22.5t-22 19.5T89 737.5 76 755t-8.5 18-5.5 23.5-1 28.5v19q0 90 80 39 193-127 414-283z" glyph-name="guillemotright" horiz-adv-x="1132" unicode="»"/><glyph d="M553 651q-84 0-136 52.5T365 836q0 82 52 135t136 53q86 0 138-53t52-135q0-80-52-132.5T553 651zM895 4q49-18 70.5-69.5T967-184q-43-141-160-201.5T539-446q-233 0-370.5 107.5T70-27q16 84 68 148.5T244.5 219t111 78 76.5 90q6 12 16.5 37t14.5 33 12 26.5 12.5 23.5 12.5 16.5 15 14.5 17.5 8 20.5 6 25 1q133 0 88-223-14-76-91-181.5T471-53q-29-98-5.5-163t87.5-73q45-4 68.5 31T659-131Q671-31 740 3t155 1z" glyph-name="questiondown" horiz-adv-x="1038" unicode="¿"/><glyph d="M1319 461q43-106 89-181t74.5-99.5 45-53.5 12.5-66q-6-61-96-61H989Q889 0 881 61q-6 45 22.5 91.5t47 91.5-6.5 168l-10 28H418q-47-143-35-194t39-98.5T440 61Q426 0 344 0H109Q0 0 0 61q0 33 12.5 55.5t35 46 50 54.5 63.5 94.5T227 461q193 504 244 635 27 88 16.5 121.5t-35 75.5-22.5 77q6 63 96 64h299q68 0 100.5-25t53.5-82q6-16 61.5-157.5T1182 810t137-349zM494 635h364l-180 471zm-31 1110q27 68 88 86t131-23q80-55 205-161 6-6 17-15.5t15.5-13.5 12.5-11.5 11-12.5 7-11 4-11-1-12.5-5-15.5q-12-31-43-34t-76 6q-174 12-258 32-80 16-109.5 76t1.5 121z" glyph-name="Agrave" horiz-adv-x="1542" unicode="À"/><glyph d="M1319 461q43-106 89-181t74.5-99.5 45-53.5 12.5-66q-6-61-96-61H989Q889 0 881 61q-6 45 22.5 91.5t47 91.5-6.5 168l-10 28H418q-47-143-35-194t39-98.5T440 61Q426 0 344 0H109Q0 0 0 61q0 33 12.5 55.5t35 46 50 54.5 63.5 94.5T227 461q193 504 244 635 27 88 16.5 121.5t-35 75.5-22.5 77q6 63 96 64h299q68 0 100.5-25t53.5-82q6-16 61.5-157.5T1182 810t137-349zM494 635h364l-180 471zm438 1110q31-61 1-120.5T823 1548q-84-20-258-32-45-8-75.5-5.5T446 1544q-4 8-5 15.5t-1 12.5 4.5 11 7.5 11 11 12.5 12 11.5 15.5 13 17.5 16q125 106 205 161 70 41 131 23t88-86z" glyph-name="Aacute" horiz-adv-x="1542" unicode="Á"/><glyph d="M1319 461q43-106 89-181t74.5-99.5 45-53.5 12.5-66q-6-61-96-61H989Q889 0 881 61q-6 45 22.5 91.5t47 91.5-6.5 168l-10 28H418q-47-143-35-194t39-98.5T440 61Q426 0 344 0H109Q0 0 0 61q0 33 12.5 55.5t35 46 50 54.5 63.5 94.5T227 461q193 504 244 635 27 88 16.5 121.5t-35 75.5-22.5 77q6 63 96 64h299q68 0 100.5-25t53.5-82q6-16 61.5-157.5T1182 810t137-349zM494 635h364l-180 471zm565 983q25-31 11.5-52.5T1020 1544h-19q-61 0-288 139-225-139-289-139h-18q-37 0-50.5 21.5T367 1618q113 127 213 231 31 31 47 40t47 9h78q31 0 47-9t47-40q100-104 213-231z" glyph-name="Acircumflex" horiz-adv-x="1542" unicode="Â"/><glyph d="M1319 461q43-106 89-181t74.5-99.5 45-53.5 12.5-66q-6-61-96-61H989Q889 0 881 61q-6 45 22.5 91.5t47 91.5-6.5 168l-10 28H418q-47-143-35-194t39-98.5T440 61Q426 0 344 0H109Q0 0 0 61q0 33 12.5 55.5t35 46 50 54.5 63.5 94.5T227 461q193 504 244 635 27 88 16.5 121.5t-35 75.5-22.5 77q6 63 96 64h299q68 0 100.5-25t53.5-82q6-16 61.5-157.5T1182 810t137-349zM494 635h364l-180 471zm483 1130q25 20 48.5 24.5t37.5-9 12-39.5q-8-76-61-143.5T854 1530q-51 0-112.5 22.5t-102.5 43-90 17.5-90-46q-43-43-80-25.5t-21 70.5q29 94 77 149.5t143 55.5q59 0 121.5-22.5t101.5-44 86-22 90 36.5z" glyph-name="Atilde" horiz-adv-x="1542" unicode="Ã"/><glyph d="M1319 461q43-106 89-181t74.5-99.5 45-53.5 12.5-66q-6-61-96-61H989Q889 0 881 61q-6 45 22.5 91.5t47 91.5-6.5 168l-10 28H418q-47-143-35-194t39-98.5T440 61Q426 0 344 0H109Q0 0 0 61q0 33 12.5 55.5t35 46 50 54.5 63.5 94.5T227 461q193 504 244 635 27 88 16.5 121.5t-35 75.5-22.5 77q6 63 96 64h299q68 0 100.5-25t53.5-82q6-16 61.5-157.5T1182 810t137-349zM494 635h364l-180 471zm8 1227q76 0 123-46.5t47-119.5q0-72-47-119t-123-47-124 47-48 119q0 74 48 120t124 46zm395 0q76 0 123-46.5t47-120-47-119.5-123-46-123 46-47 119.5 47 120 123 46.5z" glyph-name="Adieresis" horiz-adv-x="1542" unicode="Ä"/><glyph d="M1319 461q43-106 89-181t74.5-99.5 45-53.5 12.5-66q-6-61-96-61H989Q889 0 881 61q-6 45 22.5 91.5t47 91.5-6.5 168l-10 28H418q-47-143-35-194t39-98.5T440 61Q426 0 344 0H109Q0 0 0 61q0 33 12.5 55.5t35 46 50 54.5 63.5 94.5T227 461q193 504 244 635 27 88 16.5 121.5t-35 75.5-22.5 77q6 63 96 64h299q68 0 100.5-25t53.5-82q6-16 61.5-157.5T1182 810t137-349zM494 635h364l-180 471zm215 1311q117 0 186.5-56.5T965 1737q0-94-70-150.5T709 1530q-119 0-187.5 55T453 1736.5t68.5 153T709 1946zm-.5-332q67.5 0 67.5 123 0 125-67.5 125T641 1737q0-123 67.5-123z" glyph-name="Aring" horiz-adv-x="1542" unicode="Å"/><glyph d="M2015 506q39 0 61.5-25.5t14.5-73-26.5-148.5-24.5-142q-10-66-41-91.5T1905 0H995q-90 0-96 61-2 43 66 138 39 55 39 241H567q-63-92-94-155.5t-30-92 1-62.5-4-69Q428 0 344 0H90Q0 6 0 61q0 41 27.5 73t94 85T238 326q416 573 530 745 33 49 33 92t-17.5 68.5-33 63.5-9.5 75q8 63 97 64h1024q66 0 96.5-27t40.5-92q4-25 22.5-132.5T2048 1024q8-45-13.5-71.5T1972 926q-43 0-82 32.5t-54 59-44 84.5q-76 137-227 137-102-2-137-52t-35-214V827q117 6 147 35 18 16 38.5 43t35 38 35.5 11q27 0 39-18t14-38.5 2-61.5V625q0-41-2-60.5t-14.5-38T1649 508q-20 0-35 11t-35 38-39 43q-35 29-147 33V461q0-168 36.5-218t147.5-50h27q160 0 229 139 2 2 12 22.5t13.5 24.5 13.5 22.5 15 24.5 16.5 20.5T1922 467t19.5 15.5T1964 496t23.5 7 27.5 3zM1004 635v436L694 635h310z" glyph-name="AE" horiz-adv-x="2134" unicode="Æ"/><glyph d="M1427 461q27-18-8-115-20-53-54-104.5t-97.5-115-170-103T858-16h-4q-2-27-10-66 129 0 179-52t38-140q-12-94-82-140.5T819-459q-61 0-114.5 22.5T627-375q-20 23-8 58.5t55 33.5q106-4 117 56 14 63-62 63-51 0-41 33 2 12 12.5 62.5T715-6Q441 33 267.5 202T55 598q-47 270 61.5 481T441 1385.5t474 52.5q98-18 152.5-6t70 33.5 34 47 45.5 29.5q51 10 71.5-17.5T1323 1423q6-45 34.5-198.5T1395 1026q8-47-9.5-73.5T1329 928q-33 2-69.5 50t-71.5 107.5-109.5 113.5-175.5 65q-209 23-325.5-131T481 745q18-221 127-360t316-149q72-4 134 11t102 40.5 76 55.5 57.5 58.5 46 48T1381 473t46-12z" glyph-name="Ccedilla" horiz-adv-x="1484" unicode="Ç"/><glyph d="M1180 506q39 0 61.5-25.5t14-73-27-148.5-24.5-142q-10-66-40.5-91.5T1069 0H158Q66 0 63 61q-2 43 66 138 27 35 33 88t6 174v512q0 119-6 172t-33 90q-41 57-54.5 82.5T63 1370q2 63 95 64h868q66 0 96.5-27t40.5-92q6-35 23.5-137.5T1212 1026q8-47-13-73.5t-62-26.5q-43 0-82 32.5t-54.5 59T956 1102q-76 137-227 139-102-4-137-54t-35-214V827q115 6 148 35 18 16 38.5 43t35 38 34.5 11q27 0 39-18t14-37.5 2-60.5V625q0-41-2-60.5t-14-38-39-18.5q-20 0-34.5 11t-35 38-38.5 43q-33 29-148 35V461q0-168 37-218t147-50h27q160 0 229 139 2 2 12.5 22.5T1023 379t13.5 22.5T1052 426t16 20.5 18.5 20.5 19.5 15.5 22.5 13.5 24 7 27.5 3zM397 1745q27 68 88.5 86t130.5-23q80-55 205-161 6-6 17.5-15.5T854 1618t12-11.5 11.5-12.5 7.5-11 4-11-1-12.5-5-15.5q-12-31-43-34t-76 6q-174 12-258 32-80 16-110 76t1 121z" glyph-name="Egrave" horiz-adv-x="1298" unicode="È"/><glyph d="M1180 506q39 0 61.5-25.5t14-73-27-148.5-24.5-142q-10-66-40.5-91.5T1069 0H158Q66 0 63 61q-2 43 66 138 27 35 33 88t6 174v512q0 119-6 172t-33 90q-41 57-54.5 82.5T63 1370q2 63 95 64h868q66 0 96.5-27t40.5-92q6-35 23.5-137.5T1212 1026q8-47-13-73.5t-62-26.5q-43 0-82 32.5t-54.5 59T956 1102q-76 137-227 139-102-4-137-54t-35-214V827q115 6 148 35 18 16 38.5 43t35 38 34.5 11q27 0 39-18t14-37.5 2-60.5V625q0-41-2-60.5t-14-38-39-18.5q-20 0-34.5 11t-35 38-38.5 43q-33 29-148 35V461q0-168 37-218t147-50h27q160 0 229 139 2 2 12.5 22.5T1023 379t13.5 22.5T1052 426t16 20.5 18.5 20.5 19.5 15.5 22.5 13.5 24 7 27.5 3zM918 1745q31-61 1-120.5T809 1548q-84-20-258-32-45-8-76-5.5t-43 33.5q-4 8-5 15.5t-1 12.5 4 11 7 11 11.5 12.5T461 1618t15 13 18 16q125 106 204 161 70 41 131.5 23t88.5-86z" glyph-name="Eacute" horiz-adv-x="1298" unicode="É"/><glyph d="M1180 506q39 0 61.5-25.5t14-73-27-148.5-24.5-142q-10-66-40.5-91.5T1069 0H158Q66 0 63 61q-2 43 66 138 27 35 33 88t6 174v512q0 119-6 172t-33 90q-41 57-54.5 82.5T63 1370q2 63 95 64h868q66 0 96.5-27t40.5-92q6-35 23.5-137.5T1212 1026q8-47-13-73.5t-62-26.5q-43 0-82 32.5t-54.5 59T956 1102q-76 137-227 139-102-4-137-54t-35-214V827q115 6 148 35 18 16 38.5 43t35 38 34.5 11q27 0 39-18t14-37.5 2-60.5V625q0-41-2-60.5t-14-38-39-18.5q-20 0-34.5 11t-35 38-38.5 43q-33 29-148 35V461q0-168 37-218t147-50h27q160 0 229 139 2 2 12.5 22.5T1023 379t13.5 22.5T1052 426t16 20.5 18.5 20.5 19.5 15.5 22.5 13.5 24 7 27.5 3zm-174 1112q25-31 11.5-52.5T967 1544h-19q-61 0-289 139-225-139-288-139h-19q-37 0-50 21.5t11 52.5q113 127 213 231 31 31 47.5 40t47.5 9h77q31 0 47.5-9t47.5-40q100-104 213-231z" glyph-name="Ecircumflex" horiz-adv-x="1298" unicode="Ê"/><glyph d="M1180 506q39 0 61.5-25.5t14-73-27-148.5-24.5-142q-10-66-40.5-91.5T1069 0H158Q66 0 63 61q-2 43 66 138 27 35 33 88t6 174v512q0 119-6 172t-33 90q-41 57-54.5 82.5T63 1370q2 63 95 64h868q66 0 96.5-27t40.5-92q6-35 23.5-137.5T1212 1026q8-47-13-73.5t-62-26.5q-43 0-82 32.5t-54.5 59T956 1102q-76 137-227 139-102-4-137-54t-35-214V827q115 6 148 35 18 16 38.5 43t35 38 34.5 11q27 0 39-18t14-37.5 2-60.5V625q0-41-2-60.5t-14-38-39-18.5q-20 0-34.5 11t-35 38-38.5 43q-33 29-148 35V461q0-168 37-218t147-50h27q160 0 229 139 2 2 12.5 22.5T1023 379t13.5 22.5T1052 426t16 20.5 18.5 20.5 19.5 15.5 22.5 13.5 24 7 27.5 3zM463 1862q76 0 123-46.5t47-119.5q0-72-47-119t-123-47-124 47-48 119q0 74 48 120t124 46zm395 0q76 0 123-46.5t47-120-47-119.5-123-46-123 46-47 119.5 47 120 123 46.5z" glyph-name="Edieresis" horiz-adv-x="1298" unicode="Ë"/><glyph d="M557 461q0-121 6-174.5t33-87.5q43-59 55.5-85T662 61q-2-61-95-61H160Q70 0 63 61q-2 27 11.5 54.5T131 199q27 35 33 88t6 174v512q0 119-6 172t-33 90q-43 57-56.5 82.5T63 1370q6 63 97 64h407q92 0 95-64 2-27-10.5-51.5T596 1235q-27-37-33-90t-6-172V461zM141 1745q27 68 88.5 86t130.5-23q80-55 205-161 6-6 17.5-15.5T598 1618t12-11.5 11.5-12.5 7.5-11 4-11-1-12.5-5-15.5q-12-31-43-34t-76 6q-174 12-258 32-80 16-110 76t1 121z" glyph-name="Igrave" horiz-adv-x="724" unicode="Ì"/><glyph d="M557 461q0-121 6-174.5t33-87.5q43-59 55.5-85T662 61q-2-61-95-61H160Q70 0 63 61q-2 27 11.5 54.5T131 199q27 35 33 88t6 174v512q0 119-6 172t-33 90q-43 57-56.5 82.5T63 1370q6 63 97 64h407q92 0 95-64 2-27-10.5-51.5T596 1235q-27-37-33-90t-6-172V461zm43 1284q31-61 1-120.5T492 1548q-84-20-259-32-45-8-75.5-5.5T115 1544q-4 8-5 15.5t-1 12.5 4 11 7 11 11 12.5 12 11.5 15.5 13 17.5 16q125 106 205 161 70 41 131 23t88-86z" glyph-name="Iacute" horiz-adv-x="724" unicode="Í"/><glyph d="M557 461q0-121 6-174.5t33-87.5q43-59 55.5-85T662 61q-2-61-95-61H160Q70 0 63 61q-2 27 11.5 54.5T131 199q27 35 33 88t6 174v512q0 119-6 172t-33 90q-43 57-56.5 82.5T63 1370q6 63 97 64h407q92 0 95-64 2-27-10.5-51.5T596 1235q-27-37-33-90t-6-172V461zm152 1157q25-31 11.5-52.5T670 1544h-19q-61 0-289 139-225-139-288-139H55q-37 0-50 21.5t11 52.5q113 127 213 231 31 31 47.5 40t47.5 9h77q31 0 47.5-9t47.5-40q100-104 213-231z" glyph-name="Icircumflex" horiz-adv-x="724" unicode="Î"/><glyph d="M557 461q0-121 6-174.5t33-87.5q43-59 55.5-85T662 61q-2-61-95-61H160Q70 0 63 61q-2 27 11.5 54.5T131 199q27 35 33 88t6 174v512q0 119-6 172t-33 90q-43 57-56.5 82.5T63 1370q6 63 97 64h407q92 0 95-64 2-27-10.5-51.5T596 1235q-27-37-33-90t-6-172V461zM166 1862q76 0 123-46.5t47-119.5q0-72-47-119t-123-47-124 47-48 119q0 74 48 120t124 46zm395 0q76 0 123-46.5t47-120-47-119.5-123-46-123 46-47 119.5 47 120 123 46.5z" glyph-name="Idieresis" horiz-adv-x="724" unicode="Ï"/><glyph d="M657 1434q367 0 588-198t221-519.5-221-519T657 0H160Q70 0 63 61q-2 43 66 138 27 37 34 91t7 171v170h-27q-33 0-56.5 23.5T63 711v12q0 33 24 56.5t56 23.5h27v170q0 115-7 170t-34 92q-41 57-54.5 82.5T63 1370q6 63 97 64h497zm43-1239q141 0 231.5 148.5T1022 717t-90 373.5T700 1239h-10q-80 0-106.5-46T557 1018V803h199q33 0 56.5-23.5T836 723v-12q0-33-24-56.5T756 631H557V416q0-129 26.5-175T690 195h10z" glyph-name="Eth" horiz-adv-x="1486" unicode="Ð"/><glyph d="M1511 1370q2-27-11-52.5t-54-82.5q-27-37-34-92.5t-7-169.5V113q0-49-24.5-81T1309 0h-146q-78 0-114.5 18.5T971 104q-109 180-609 992V461q0-117 7.5-171t33.5-91q43-59 55.5-85T469 61q-2-61-94-61H158Q66 0 63 61q-2 27 10.5 52.5T129 199q27 37 34 91t7 171v512h-2q0 119-6 172t-33 90q-43 59-55.5 83.5T63 1370q2 61 93 64h344q74 0 103.5-17.5T670 1337q27-43 542-897v533q0 115-7 170t-34 92q-43 59-55 83.5t-10 51.5q2 63 94 64h217q92-1 94-64zm-456 395q25 20 48 24.5t37.5-9 12.5-39.5q-8-76-61.5-143.5T932 1530q-51 0-112.5 22.5t-102.5 43-90 17.5-90-46q-43-43-80-25.5t-21 70.5q29 94 77 149.5t142 55.5q59 0 122-22.5t102-44 86-22 90 36.5z" glyph-name="Ntilde" horiz-adv-x="1574" unicode="Ñ"/><glyph d="M784.5 1450q327.5 0 535.5-200.5T1528 717t-208-533.5T784.5-18 249 183.5 41 717t208 532.5T784.5 1450zm0-1284Q926 166 1008 317.5t82 399.5-82 398.5T784.5 1266 561 1115.5 479 717t82-399.5T784.5 166zM553 1745q27 68 88 86t131-23q80-55 205-161 6-6 17.5-15.5t15.5-13.5 12-11.5 11-12.5 7-11 4-11-1-12.5-5-15.5q-12-31-42.5-34t-75.5 6q-174 12-258 32-80 16-110 76t1 121z" glyph-name="Ograve" horiz-adv-x="1568" unicode="Ò"/><glyph d="M784.5 1450q327.5 0 535.5-200.5T1528 717t-208-533.5T784.5-18 249 183.5 41 717t208 532.5T784.5 1450zm0-1284Q926 166 1008 317.5t82 399.5-82 398.5T784.5 1266 561 1115.5 479 717t82-399.5T784.5 166zM1022 1745q31-61 1-120.5T913 1548q-84-20-258-32-45-8-75.5-5.5T537 1544q-4 8-5.5 15.5T530 1572t4.5 11 7.5 11 11 12.5 12 11.5 15.5 13 17.5 16q125 106 205 161 70 41 131 23t88-86z" glyph-name="Oacute" horiz-adv-x="1568" unicode="Ó"/><glyph d="M784.5 1450q327.5 0 535.5-200.5T1528 717t-208-533.5T784.5-18 249 183.5 41 717t208 532.5T784.5 1450zm0-1284Q926 166 1008 317.5t82 399.5-82 398.5T784.5 1266 561 1115.5 479 717t82-399.5T784.5 166zM1130 1618q25-31 11.5-52.5T1092 1544h-19q-61 0-289 139-227-139-288-139h-19q-37 0-50 21.5t11 52.5q113 127 213 231 31 31 47.5 40t46.5 9h78q31 0 47.5-9t47.5-40q99-104 212-231z" glyph-name="Ocircumflex" horiz-adv-x="1568" unicode="Ô"/><glyph d="M784.5 1450q327.5 0 535.5-200.5T1528 717t-208-533.5T784.5-18 249 183.5 41 717t208 532.5T784.5 1450zm0-1284Q926 166 1008 317.5t82 399.5-82 398.5T784.5 1266 561 1115.5 479 717t82-399.5T784.5 166zM1053 1765q25 20 48 24.5t37.5-9 12.5-39.5q-8-76-61.5-143.5T930 1530q-51 0-112.5 22.5t-102.5 43-90.5 17.5-89.5-46q-43-43-80-25.5t-21 70.5q29 94 77 149.5t142 55.5q59 0 122-22.5t101.5-44 86-22 90.5 36.5z" glyph-name="Otilde" horiz-adv-x="1568" unicode="Õ"/><glyph d="M784.5 1450q327.5 0 535.5-200.5T1528 717t-208-533.5T784.5-18 249 183.5 41 717t208 532.5T784.5 1450zm0-1284Q926 166 1008 317.5t82 399.5-82 398.5T784.5 1266 561 1115.5 479 717t82-399.5T784.5 166zM588 1862q76 0 123-46.5t47-119.5q0-72-47-119t-123-47-124 47-48 119q0 74 48 120t124 46zm395 0q76 0 123-46.5t47-120-47-119.5-123-46-123 46-47 119.5 47 120 123 46.5z" glyph-name="Odieresis" horiz-adv-x="1568" unicode="Ö"/><glyph d="m551 643 174-174q23-23 23-56.5T725 356l-33-32q-25-25-57.5-25T578 324L406 496 231 324q-23-25-56.5-25T119 324l-33 32q-23 23-23 56.5T86 469l172 174L86 815q-23 23-23 56.5T86 928l33 35q23 23 56.5 22.5T231 963l175-175 172 175q25 23 57.5 22.5T692 963l33-35q23-23 23-56.5T725 815z" glyph-name="multiply" horiz-adv-x="811" unicode="×"/><glyph d="M1315 1253q213-201 213-536 0-332-208-533.5T784-18Q548-18 365 94q-20-25-27-31-68-82-127-81-43 0-60.5 27.5T164 76q2 4 32.5 41t53.5 65Q41 385 41 717t208 532.5T784 1450q231 0 414-109 12 16 16 19 72 90 129 90 41 0 59.5-27.5T1384 1337q-2-4-13-17t-25.5-31-30.5-36zM479 717q0-131 21-228 166 199 510 623-80 154-226 154-141 0-223-150.5T479 717zm305-551q143 0 225.5 151.5T1092 717q0 129-25 233-92-115-275.5-337T555 328q84-162 229-162z" glyph-name="Oslash" horiz-adv-x="1568" unicode="Ø"/><glyph d="M1513 1370q2-27-11-52.5t-54-82.5q-27-37-34-92.5t-7-169.5V616q0-315-147.5-474.5T829-18q-317 0-488 158.5T170 616v357q0 119-6 172t-33 90q-43 59-56.5 83.5T63 1370q6 63 97 64h407q90 0 97-64 2-27-11.5-51.5T596 1235q-27-37-33-90t-6-172V616q0-449 334-448 324 0 323 448v357q0 115-7 170t-33 92q-43 59-55.5 83.5T1108 1370q2 63 94 64h217q88-1 94-64zm-915 375q27 68 88.5 86t130.5-23q80-55 205-161 6-6 17.5-15.5t15.5-13.5 12-11.5 11-12.5 7.5-11 4.5-11-1.5-12.5-5.5-15.5q-12-31-42.5-34t-75.5 6q-174 12-258 32-80 16-110 76t1 121z" glyph-name="Ugrave" horiz-adv-x="1576" unicode="Ù"/><glyph d="M1513 1370q2-27-11-52.5t-54-82.5q-27-37-34-92.5t-7-169.5V616q0-315-147.5-474.5T829-18q-317 0-488 158.5T170 616v357q0 119-6 172t-33 90q-43 59-56.5 83.5T63 1370q6 63 97 64h407q90 0 97-64 2-27-11.5-51.5T596 1235q-27-37-33-90t-6-172V616q0-449 334-448 324 0 323 448v357q0 115-7 170t-33 92q-43 59-55.5 83.5T1108 1370q2 63 94 64h217q88-1 94-64zm-407 375q31-61 1-120.5T997 1548q-84-20-258-32-45-8-75.5-5.5T621 1544q-4 8-5.5 15.5T614 1572t4.5 11 7.5 11 11 12.5 12 11.5 15.5 13 17.5 16q125 106 205 161 70 41 131 23t88-86z" glyph-name="Uacute" horiz-adv-x="1576" unicode="Ú"/><glyph d="M1513 1370q2-27-11-52.5t-54-82.5q-27-37-34-92.5t-7-169.5V616q0-315-147.5-474.5T829-18q-317 0-488 158.5T170 616v357q0 119-6 172t-33 90q-43 59-56.5 83.5T63 1370q6 63 97 64h407q90 0 97-64 2-27-11.5-51.5T596 1235q-27-37-33-90t-6-172V616q0-449 334-448 324 0 323 448v357q0 115-7 170t-33 92q-43 59-55.5 83.5T1108 1370q2 63 94 64h217q88-1 94-64zm-296 248q25-31 11-52.5t-50-21.5h-19q-61 0-289 139-227-139-288-139h-19q-37 0-50 21.5t11 52.5q113 127 213 231 31 31 47.5 40t46.5 9h78q31 0 47.5-9t47.5-40q100-104 213-231z" glyph-name="Ucircumflex" horiz-adv-x="1576" unicode="Û"/><glyph d="M1513 1370q2-27-11-52.5t-54-82.5q-27-37-34-92.5t-7-169.5V616q0-315-147.5-474.5T829-18q-317 0-488 158.5T170 616v357q0 119-6 172t-33 90q-43 59-56.5 83.5T63 1370q6 63 97 64h407q90 0 97-64 2-27-11.5-51.5T596 1235q-27-37-33-90t-6-172V616q0-449 334-448 324 0 323 448v357q0 115-7 170t-33 92q-43 59-55.5 83.5T1108 1370q2 63 94 64h217q88-1 94-64zm-819 492q76 0 123-46.5t47-119.5q0-72-47-119t-123-47-124 47-48 119q0 74 48 120t124 46zm395.5 0q75.5 0 123-46.5t47.5-120-47.5-119.5-123-46-122.5 46-47 119.5 47 120 122.5 46.5z" glyph-name="Udieresis" horiz-adv-x="1576" unicode="Ü"/><glyph d="M1333 1434q109 0 111-64 0-39-22.5-71.5T1364 1237t-90-99.5T1167 973L940 543v-54q0-238 39-290 70-96 68-138-6-61-97-61H543q-92 0-94 61-2 27 10 52.5t55 85.5q39 53 39 290v39L274 973q-74 119-149.5 201.5T23.5 1290 2 1370q6 63 94 64h428q100 0 109-64 4-37-7.5-77t-21.5-69.5 7.5-94T682 973l154-260 131 260q43 86 54 151.5t1 98-19.5 72.5-1.5 75q14 63 97 64h235zm-272 311q31-61 1-120.5T952 1548q-84-20-258-32-45-8-75.5-5.5T575 1544q-4 8-5 15.5t-1 12.5 4.5 11 7.5 11 11 12.5 12 11.5 15.5 13 17.5 16q125 106 205 161 70 41 131 23t88-86z" glyph-name="Yacute" horiz-adv-x="1443" unicode="Ý"/><glyph d="M760 1167q281 0 408.5-127T1296 702q0-195-140-315.5T784 266H563q8-41 33-67 84-94 80-138-8-61-96-61H158Q66 0 63 61q-2 27 10.5 52.5T129 199q27 35 33 88t6 174v512q0 119-6 172t-33 90q-43 59-55.5 83.5T63 1370q2 63 95 64h407q90 0 97-64 2-27-11.5-52.5T596 1235q-20-29-29-68h193zm-92-714q100 0 159.5 72.5T887 717t-59.5 191.5T668 981h-9q-68 0-85-26.5T557 848V586q0-82 17.5-107.5T659 453h9z" glyph-name="Thorn" horiz-adv-x="1337" unicode="Þ"/><glyph d="M774 893q-2-33 44-61.5t118-50 156-55.5 157.5-74T1372 542.5t51-157.5q4-190-119.5-300T965-18q-143 4-257 69.5T551 246q-23 66 .5 119t77.5 75q80 35 137-2t78-139q33-150 112-158 47-4 71 37t13.5 102.5T989 391q-35 41-92 86t-105.5 76-95.5 73-70.5 85T607 817.5 655 958q80 152 60.5 255.5T596 1327q-74 6-118-42t-44-128q0-55 33-145t33-213V147q0-76-25.5-111.5T381 0H117Q25 0 23 61q-2 27 10 52.5T88 199q27 35 33 88t6 174v287q0 702 502 702 178 0 312-91t81-243q-16-51-58-87t-82-50-73-35.5-35-50.5z" glyph-name="germandbls" horiz-adv-x="1466" unicode="ß"/><glyph d="M1051 244q18-18 46.5-34.5t40-31 9.5-41.5q-2-66-72.5-110.5T915-18q-213 0-262 131Q569-18 383-18q-164 0-258 77.5T31 264q0 193 158.5 272.5T639 616v29q0 68-4 107t-24.5 71.5T551 862q-109 14-141-86-55-176-209-123-47 16-72 64.5t0 109.5q74 193 442 193 440 0 441-426V420.5l1-39.5 3-34.5 5-33 7-27 9.5-24.5 13.5-18zM653 344v82q0 47-21.5 57.5T557 481q-59-10-101-53t-46-109q-4-68 27.5-107.5T535 172q118 0 118 172zm-297 991q27 68 88.5 86.5T575 1399q80-55 205-162 6-6 17.5-15.5T813 1208t12.5-11 11.5-12 7-11.5 4-11.5-1-12-5-15q-12-31-43-34t-76 5q-174 12-258 33-80 16-110 75.5t1 120.5z" glyph-name="agrave" horiz-adv-x="1159" unicode="à"/><glyph d="M1051 244q18-18 46.5-34.5t40-31 9.5-41.5q-2-66-72.5-110.5T915-18q-213 0-262 131Q569-18 383-18q-164 0-258 77.5T31 264q0 193 158.5 272.5T639 616v29q0 68-4 107t-24.5 71.5T551 862q-109 14-141-86-55-176-209-123-47 16-72 64.5t0 109.5q74 193 442 193 440 0 441-426V420.5l1-39.5 3-34.5 5-33 7-27 9.5-24.5 13.5-18zM653 344v82q0 47-21.5 57.5T557 481q-59-10-101-53t-46-109q-4-68 27.5-107.5T535 172q118 0 118 172zm170 991q31-61 1.5-120.5T715 1139q-84-20-258-33-45-8-76-5t-43 34q-4 8-5 15t-1 12 4 11.5 7 11.5 11 12 12.5 11 15.5 13.5 17 15.5q125 106 205 162 70 41 131 22.5t88-86.5z" glyph-name="aacute" horiz-adv-x="1159" unicode="á"/><glyph d="M1051 244q18-18 46.5-34.5t40-31 9.5-41.5q-2-66-72.5-110.5T915-18q-213 0-262 131Q569-18 383-18q-164 0-258 77.5T31 264q0 193 158.5 272.5T639 616v29q0 68-4 107t-24.5 71.5T551 862q-109 14-141-86-55-176-209-123-47 16-72 64.5t0 109.5q74 193 442 193 440 0 441-426V420.5l1-39.5 3-34.5 5-33 7-27 9.5-24.5 13.5-18zM653 344v82q0 47-21.5 57.5T557 481q-59-10-101-53t-46-109q-4-68 27.5-107.5T535 172q118 0 118 172zm262 823q25-31 11.5-52t-49.5-21h-19q-63 0-289 139-225-139-288-139h-19q-37 0-50 21.5t11 51.5q113 127 213 232 31 31 47.5 40t46.5 9h78q31 0 47.5-9t46.5-40q100-105 213-232z" glyph-name="acircumflex" horiz-adv-x="1159" unicode="â"/><glyph d="M1051 244q18-18 46.5-34.5t40-31 9.5-41.5q-2-66-72.5-110.5T915-18q-213 0-262 131Q569-18 383-18q-164 0-258 77.5T31 264q0 193 158.5 272.5T639 616v29q0 68-4 107t-24.5 71.5T551 862q-109 14-141-86-55-176-209-123-47 16-72 64.5t0 109.5q74 193 442 193 440 0 441-426V420.5l1-39.5 3-34.5 5-33 7-27 9.5-24.5 13.5-18zM653 344v82q0 47-21.5 57.5T557 481q-59-10-101-53t-46-109q-4-68 27.5-107.5T535 172q118 0 118 172zm205 991q25 20 48.5 24.5t37.5-9 12-39.5q-8-76-61-143.5T735 1100q-51 0-112.5 22.5t-102.5 43-90 17.5-90-46q-43-43-80-26t-20 71q29 94 77 149t142 55q59 0 121.5-22.5t101.5-44 86-21.5 90 37z" glyph-name="atilde" horiz-adv-x="1159" unicode="ã"/><glyph d="M1051 244q18-18 46.5-34.5t40-31 9.5-41.5q-2-66-72.5-110.5T915-18q-213 0-262 131Q569-18 383-18q-164 0-258 77.5T31 264q0 193 158.5 272.5T639 616v29q0 68-4 107t-24.5 71.5T551 862q-109 14-141-86-55-176-209-123-47 16-72 64.5t0 109.5q74 193 442 193 440 0 441-426V420.5l1-39.5 3-34.5 5-33 7-27 9.5-24.5 13.5-18zM653 344v82q0 47-21.5 57.5T557 481q-59-10-101-53t-46-109q-4-68 27.5-107.5T535 172q118 0 118 172zM373 1432q76 0 123-46.5t47-119.5q0-72-47-119t-123-47-124 47-48 119q0 74 48 120t124 46zm395 0q76 0 123-46.5t47-120-47-119.5-123-46-123 46-47 119.5 47 120 123 46.5z" glyph-name="adieresis" horiz-adv-x="1159" unicode="ä"/><glyph d="M1051 244q18-18 46.5-34.5t40-31 9.5-41.5q-2-66-72.5-110.5T915-18q-213 0-262 131Q569-18 383-18q-164 0-258 77.5T31 264q0 193 158.5 272.5T639 616v29q0 68-4 107t-24.5 71.5T551 862q-109 14-141-86-55-176-209-123-47 16-72 64.5t0 109.5q74 193 442 193 440 0 441-426V420.5l1-39.5 3-34.5 5-33 7-27 9.5-24.5 13.5-18zM653 344v82q0 47-21.5 57.5T557 481q-59-10-101-53t-46-109q-4-68 27.5-107.5T535 172q118 0 118 172zm-63 1172q117 0 186.5-56.5T846 1307q0-94-69.5-150.5T590 1100q-119 0-187.5 55T334 1306.5t68.5 153T590 1516zm-.5-332q67.5 0 67.5 123 0 125-67.5 125T522 1307q0-123 67.5-123z" glyph-name="aring" horiz-adv-x="1159" unicode="å"/><glyph d="M1579 303q45 43 77 18.5t5-81.5q-51-113-161.5-185.5T1219-18q-283 0-445 180Q663-18 401-18q-176 0-273 76.5T31 264q0 193 158.5 273.5T639 618v27q0 68-4 107t-24.5 71.5T551 862q-109 14-141-86-55-174-209-123-47 16-71 64.5T129 827q74 193 442 193 201 0 306-82 137 88 331 82 209-6 328-124t133-261q10-106-17.5-148.5T1528 444h-506q23-125 126-187t226-48 205 94zm-555 365q-4-16 2-29.5t21-13.5h239q78 0 55 96-35 143-163 135-115-10-154-188zM653 344v82q0 47-21.5 57.5T557 481q-59-10-101-53t-46-106q-6-150 125-150 118 0 118 172z" glyph-name="ae" horiz-adv-x="1714" unicode="æ"/><glyph d="M944 319q45 41 77 16.5t5-81.5Q979 148 873.5 72T616-14q-2-8-4-22.5t-4-26-4-19.5q129 0 179.5-52T823-274q-12-94-81.5-140.5T582-459q-61 0-116.5 22.5T387-375q-20 23-8 58.5t57 33.5q106-4 117 56 10 63-61 63-53 0-43 33 4 12 14 62.5T475-10Q285 17 161 140.5T25 473Q9 713 169.5 866.5T567 1020q125 0 230.5-40t163-103.5 75-139T1001 590q-33-49-98-65.5t-125.5 14T700 643q-25 111-69.5 158T512 835.5 404.5 729 395 496q27-147 126.5-219t216-57T944 319z" glyph-name="ccedilla" horiz-adv-x="1079" unicode="ç"/><glyph d="M963 303q45 43 76.5 18.5t4.5-81.5Q993 125 882.5 53.5T602-18q-109 0-209 31.5t-182 92T78 264 23 487q-8 254 159.5 398.5T592 1020q209-6 327.5-123T1053 635q10-106-17.5-148.5T911 444H406q23-125 126-187t226-48 205 94zM561 854q-115-8-153-186-4-16 2-29.5t20-13.5h240q37 0 52 25.5t3 70.5q-35 145-164 133zm-250 481q27 68 88.5 86.5T530 1399q80-55 205-162 6-6 17.5-15.5T768 1208t12-11 11.5-12 7.5-11.5 4-11.5-1-12-5-15q-12-31-43-34t-76 5q-174 12-258 33-80 16-110 75.5t1 120.5z" glyph-name="egrave" horiz-adv-x="1097" unicode="è"/><glyph d="M963 303q45 43 76.5 18.5t4.5-81.5Q993 125 882.5 53.5T602-18q-109 0-209 31.5t-182 92T78 264 23 487q-8 254 159.5 398.5T592 1020q209-6 327.5-123T1053 635q10-106-17.5-148.5T911 444H406q23-125 126-187t226-48 205 94zM561 854q-115-8-153-186-4-16 2-29.5t20-13.5h240q37 0 52 25.5t3 70.5q-35 145-164 133zm217 481q31-61 1.5-120.5T670 1139q-84-20-258-33-45-8-76-5t-43 34q-4 8-5 15t-1 12 4 11.5 7 11.5 11 12 12.5 11 15.5 13.5 17 15.5q125 106 205 162 70 41 131 22.5t88-86.5z" glyph-name="eacute" horiz-adv-x="1097" unicode="é"/><glyph d="M963 303q45 43 76.5 18.5t4.5-81.5Q993 125 882.5 53.5T602-18q-109 0-209 31.5t-182 92T78 264 23 487q-8 254 159.5 398.5T592 1020q209-6 327.5-123T1053 635q10-106-17.5-148.5T911 444H406q23-125 126-187t226-48 205 94zM561 854q-115-8-153-186-4-16 2-29.5t20-13.5h240q37 0 52 25.5t3 70.5q-35 145-164 133zm371 313q25-31 11.5-52t-50.5-21h-19q-63 0-288 139-225-139-289-139h-18q-37 0-50.5 21.5T240 1167q113 127 213 232 31 31 47 40t47 9h78q31 0 47-9t47-40q100-105 213-232z" glyph-name="ecircumflex" horiz-adv-x="1097" unicode="ê"/><glyph d="M963 303q45 43 76.5 18.5t4.5-81.5Q993 125 882.5 53.5T602-18q-109 0-209 31.5t-182 92T78 264 23 487q-8 254 159.5 398.5T592 1020q209-6 327.5-123T1053 635q10-106-17.5-148.5T911 444H406q23-125 126-187t226-48 205 94zM561 854q-115-8-153-186-4-16 2-29.5t20-13.5h240q37 0 52 25.5t3 70.5q-35 145-164 133zm-172 578q76 0 123-46.5t47-119.5q0-72-47-119t-123-47-124 47-48 119q0 74 48 120t124 46zm395.5 0q75.5 0 122.5-46.5t47-120-47-119.5-122.5-46-123 46-47.5 119.5 47.5 120 123 46.5z" glyph-name="edieresis" horiz-adv-x="1097" unicode="ë"/><glyph d="M561 199q68-94 66-138-6-61-95-61H137Q45 0 43 61q-2 27 10.5 52.5T109 199q27 35 32.5 88t5.5 174q0 119-6 172t-32 88q-43 59-55.5 84.5T43 858q2 59 94 90 141 45 207 64 86 25 132-12t46-126V461q0-121 6-174t33-88zM59 1335q27 68 88.5 86.5T279 1399q80-55 204-162 6-6 17.5-15.5T516 1208t12.5-11 11.5-12 7-11.5 4-11.5-1-12-5-15q-12-31-43-34t-76 5q-174 12-258 33-80 16-110 75.5t1 120.5z" glyph-name="igrave" unicode="ì"/><glyph d="M561 199q68-94 66-138-6-61-95-61H137Q45 0 43 61q-2 27 10.5 52.5T109 199q27 35 32.5 88t5.5 174q0 119-6 172t-32 88q-43 59-55.5 84.5T43 858q2 59 94 90 141 45 207 64 86 25 132-12t46-126V461q0-121 6-174t33-88zm6 1136q31-61 1.5-120.5T459 1139q-84-20-258-33-45-8-76-5t-43 34q-4 8-5 15t-1 12 4 11.5 7 11.5 11 12 12.5 11 15.5 13.5 17 15.5q125 106 205 162 70 41 131 22.5t88-86.5z" glyph-name="iacute" unicode="í"/><glyph d="M559 199q68-94 66-138-6-61-95-61H135Q43 0 41 61q-2 27 10 52.5t55 85.5q27 35 33 88t6 174q0 119-6 172t-33 88q-43 59-55 84.5T41 858q2 59 94 90 141 45 207 64 86 25 132-12t46-126V461q0-121 6-174t33-88zm100 968q25-31 11.5-52t-49.5-21h-19q-63 0-289 139-227-139-288-139H6q-37 0-50 21.5t11 51.5q113 127 213 232 31 31 47.5 40t46.5 9h78q31 0 47.5-9t46.5-40q100-105 213-232z" glyph-name="icircumflex" unicode="î"/><glyph d="M561 199q68-94 66-138-6-61-95-61H137Q45 0 43 61q-2 27 10.5 52.5T109 199q27 35 32.5 88t5.5 174q0 119-6 172t-32 88q-43 59-55.5 84.5T43 858q2 59 94 90 141 45 207 64 86 25 132-12t46-126V461q0-121 6-174t33-88zM119 1432q76 0 123-46.5t47-119.5q0-72-47-119t-123-47-124 47-48 119q0 74 48 120t124 46zm395 0q76 0 123-46.5t47-120-47-119.5-123-46-123 46-47 119.5 47 120 123 46.5z" glyph-name="idieresis" unicode="ï"/><glyph d="M834 1286q367-279 323-774-23-260-176.5-395T578-18q-240 0-388.5 125.5T23 449Q13 592 74 701.5T239.5 863 476 915t255-61q-43 178-145 283-201-121-230-138-33-20-65.5-12t-40.5 41q-16 70 90 133 16 10 119 72-27 14-68 32.5t-61.5 29-43 26.5-29.5 36.5-1 49.5q8 37 70.5 48t163-9.5T692 1374q43 27 107.5 66t81.5 49q47 25 75.5 12.5T989 1456q12-70-78-123-22-12-77-47zM590 158q78 0 126 82t48 208.5T716 657t-126 82-125-82-47-208.5T465 240t125-82z" glyph-name="eth" horiz-adv-x="1204" unicode="ð"/><glyph d="M1219 199q70-96 67-138-6-61-96-61H797q-90 0-97 61-2 41 68 138 27 35 33 88t6 174v20q0 59-1 89t-8 83.5-21.5 80-43 48T662 803q-139 0-140-197V461q0-121 6.5-174.5T561 199q43-59 55.5-85T627 61q-2-61-95-61H139Q49 0 43 61q-2 43 66 138 27 37 34 90t7 166q0 209-41 266-68 94-66 137 6 61 96 90 125 43 205 64 168 45 178-123 131 131 297 131 184 0 272.5-100.5T1180 682V461q0-121 6-174t33-88zM932 1335q25 20 48.5 24.5t37.5-9 12-39.5q-8-76-61.5-143.5T809 1100q-51 0-112.5 22.5t-102.5 43-90 17.5-90-46q-43-43-80-26t-21 71q29 94 77 149t142 55q59 0 122-22.5t102-44 86-21.5 90 37z" glyph-name="ntilde" horiz-adv-x="1308" unicode="ñ"/><glyph d="M580 1020q256 0 406.5-139.5t150.5-379T986.5 122 580-18 172 122 20 501.5t152 379T580 1020zm0-844q84 0 130 90t46 235.5T710 736t-130 89q-86 0-132.5-89T401 501.5 447.5 266 580 176zM344 1335q27 68 88.5 86.5T563 1399q80-55 205-162 6-6 17.5-15.5T801 1208t12-11 11-12 7.5-11.5 4.5-11.5-1-12-6-15q-12-31-42.5-34t-75.5 5q-174 12-258 33-80 16-110 75.5t1 120.5z" glyph-name="ograve" horiz-adv-x="1177" unicode="ò"/><glyph d="M580 1020q256 0 406.5-139.5t150.5-379T986.5 122 580-18 172 122 20 501.5t152 379T580 1020zm0-844q84 0 130 90t46 235.5T710 736t-130 89q-86 0-132.5-89T401 501.5 447.5 266 580 176zm231 1159q31-61 1-120.5T702 1139q-84-20-258-33-45-8-75.5-5t-42.5 34q-4 8-5.5 15t-1.5 12 4.5 11.5 7.5 11.5 11 12 12 11 15.5 13.5T387 1237q125 106 205 162 70 41 131 22.5t88-86.5z" glyph-name="oacute" horiz-adv-x="1177" unicode="ó"/><glyph d="M580 1020q256 0 406.5-139.5t150.5-379T986.5 122 580-18 172 122 20 501.5t152 379T580 1020zm0-844q84 0 130 90t46 235.5T710 736t-130 89q-86 0-132.5-89T401 501.5 447.5 266 580 176zm344 991q25-31 11.5-52t-50.5-21h-19q-63 0-288 139-227-139-289-139h-19q-37 0-50 21.5t11 51.5q113 127 213 232 31 31 47.5 40t47.5 9h77q31 0 47.5-9t47.5-40q100-105 213-232z" glyph-name="ocircumflex" horiz-adv-x="1177" unicode="ô"/><glyph d="M580 1020q256 0 406.5-139.5t150.5-379T986.5 122 580-18 172 122 20 501.5t152 379T580 1020zm0-844q84 0 130 90t46 235.5T710 736t-130 89q-86 0-132.5-89T401 501.5 447.5 266 580 176zm266 1159q25 20 48.5 24.5t37.5-9 12-39.5q-8-76-61.5-143.5T723 1100q-51 0-112.5 22.5t-102.5 43-90 17.5-90-46q-43-43-80-26t-21 71q29 94 77 149t142 55q59 0 122-22.5t102-44 86-21.5 90 37z" glyph-name="otilde" horiz-adv-x="1177" unicode="õ"/><glyph d="M580 1020q256 0 406.5-139.5t150.5-379T986.5 122 580-18 172 122 20 501.5t152 379T580 1020zm0-844q84 0 130 90t46 235.5T710 736t-130 89q-86 0-132.5-89T401 501.5 447.5 266 580 176zM381 1432q76 0 123-46.5t47-119.5q0-72-47-119t-123-47-124 47-48 119q0 74 48 120t124 46zm395 0q76 0 123-46.5t47-120-47-119.5-123-46-123 46-47 119.5 47 120 123 46.5z" glyph-name="odieresis" horiz-adv-x="1177" unicode="ö"/><glyph d="M838 745q35 0 57.5-22.5T918 666v-48q0-33-24-56t-56-23H141q-33 0-56.5 23.5T61 618v48q0 33 24 56t56 23h697zM489.5 887q-83.5 0-136 52T301 1071q0 82 52.5 133t136 51 137-51 53.5-133q0-80-53.5-132t-137-52zm0-490q83.5 0 137-51T680 213 626.5 80t-137-51-136 51T301 213t52.5 133 136 51z" glyph-name="divide" horiz-adv-x="978" unicode="÷"/><glyph d="M995 870q141-137 142-368 0-240-150.5-380T580-18q-182 0-310 71-59-72-127-71-39 0-52 30.5T109 82q18 25 49 55Q21 278 20 502q0 240 152 379t408 139q172 0 299-66 59 68 116 68 49 0 57.5-39t-34.5-86q-15-15-23-27zM401 502q0-29 5-82 141 158 294 334-45 72-120 71-86 0-132.5-89T401 502zm179-326q84 0 130 90t46 236q0 47-6 94-39-45-143.5-163T453 258q45-82 127-82z" glyph-name="oslash" horiz-adv-x="1177" unicode="ø"/><glyph d="M1198 244q16-14 46-31.5t40-32 8-43.5q-2-66-71.5-110.5T1061-18q-213 0-262 131-43-63-127-97T487-18Q303-18 215 82t-88 240v139q0 119-6 172t-33 88q-43 59-55.5 84.5T23 858q2 59 94 90 141 45 207 64 86 25 131-12t45-126V522q0-61 1-91t8-82 21.5-78.5 44-48T647 201q137 0 137 196v64q0 119-6 172t-33 88q-43 59-55 84.5T680 858q2 59 94 90 141 45 207 64 86 25 132-12t46-126V419.5l1-42 3-35.5 5-32.5 7.5-27 9.5-23.5 13-15zM424 1335q27 68 88 86.5t131-22.5q80-55 205-162 6-6 17.5-15.5T881 1208t12-11 11-12 7-11.5 4-11.5-1-12-5-15q-12-31-42.5-34t-75.5 5q-174 12-259 33-80 16-109.5 75.5T424 1335z" glyph-name="ugrave" horiz-adv-x="1304" unicode="ù"/><glyph d="M1198 244q16-14 46-31.5t40-32 8-43.5q-2-66-71.5-110.5T1061-18q-213 0-262 131-43-63-127-97T487-18Q303-18 215 82t-88 240v139q0 119-6 172t-33 88q-43 59-55.5 84.5T23 858q2 59 94 90 141 45 207 64 86 25 131-12t45-126V522q0-61 1-91t8-82 21.5-78.5 44-48T647 201q137 0 137 196v64q0 119-6 172t-33 88q-43 59-55 84.5T680 858q2 59 94 90 141 45 207 64 86 25 132-12t46-126V419.5l1-42 3-35.5 5-32.5 7.5-27 9.5-23.5 13-15zM911 1335q31-61 1.5-120.5T803 1139q-84-20-258-33-45-8-76-5t-43 34q-4 8-5 15t-1 12 4 11.5 7 11.5 11.5 12 12.5 11 15 13.5 17 15.5q125 106 205 162 70 41 131 22.5t88-86.5z" glyph-name="uacute" horiz-adv-x="1304" unicode="ú"/><glyph d="M1198 244q16-14 46-31.5t40-32 8-43.5q-2-66-71.5-110.5T1061-18q-213 0-262 131-43-63-127-97T487-18Q303-18 215 82t-88 240v139q0 119-6 172t-33 88q-43 59-55.5 84.5T23 858q2 59 94 90 141 45 207 64 86 25 131-12t45-126V522q0-61 1-91t8-82 21.5-78.5 44-48T647 201q137 0 137 196v64q0 119-6 172t-33 88q-43 59-55 84.5T680 858q2 59 94 90 141 45 207 64 86 25 132-12t46-126V419.5l1-42 3-35.5 5-32.5 7.5-27 9.5-23.5 13-15zm-194 964q25-31 11-52t-50-21h-19q-63 0-289 139-227-139-288-139h-19q-37 0-50 21.5t11 51.5q113 127 213 232 31 31 47.5 40t46.5 9h78q31 0 47.5-9.5T791 1440q100-105 213-232z" glyph-name="ucircumflex" horiz-adv-x="1304" unicode="û"/><glyph d="M1198 244q16-14 46-31.5t40-32 8-43.5q-2-66-71.5-110.5T1061-18q-213 0-262 131-43-63-127-97T487-18Q303-18 215 82t-88 240v139q0 119-6 172t-33 88q-43 59-55.5 84.5T23 858q2 59 94 90 141 45 207 64 86 25 131-12t45-126V522q0-61 1-91t8-82 21.5-78.5 44-48T647 201q137 0 137 196v64q0 119-6 172t-33 88q-43 59-55 84.5T680 858q2 59 94 90 141 45 207 64 86 25 132-12t46-126V419.5l1-42 3-35.5 5-32.5 7.5-27 9.5-23.5 13-15zM461 1452q76 0 123-46t47-120q0-72-47-119t-123-47-124 47-48 119q0 74 48 120t124 46zm395 0q76 0 123-46t47-120-47-120-123-46-123 46-47 120 47 120 123 46z" glyph-name="udieresis" horiz-adv-x="1304" unicode="ü"/><glyph d="M1112 946q-2-29-18.5-51.5t-39-43-55-72.5T938 653Q799 295 735 119q-16-45-47-135t-46-132-46-105.5-58.5-95.5-71.5-62.5-97-43.5q-117-27-244 10T-16-317q-10 66 22.5 110.5T92-152q55 10 96-6t61.5-41.5 50.5-45 65-15.5q20 4 35.5 15.5t40 58.5T494-53q-10 25-62.5 132t-117 242.5T201 561q-35 72-61.5 116T75 768t-38 49q-25 35-35 50.5t-16 34-4 40.5q8 61 110 62h297q68 0 97.5-14.5T512 928q-2-20-22.5-68.5T485 774l166-399 103 278q39 123 34.5 162t-24 72-14.5 59q2 33 20 45.5t59 12.5h220q63-1 63-58zm-190 389q31-61 1-120.5T813 1139q-84-20-258-33-45-8-75.5-5t-43.5 34q-4 8-5 15t-1 12 4 11.5 7 11.5 11.5 12 12.5 11 15.5 13.5T498 1237q125 106 204 162 70 41 131.5 22.5T922 1335z" glyph-name="yacute" horiz-adv-x="1132" unicode="ý"/><glyph d="M745 1020q217 8 347.5-137.5T1223 502q0-233-130-380T745-18q-141 6-245 96V-4q2-115 9-166t32-78q84-90 80-137-10-61-97-61H117q-92 0-94 61-2 27 10 52.5T88-248q27 35 33 88.5T127 14v875q0 121-6 174t-33 88q-43 59-55.5 85t-9.5 52q2 59 94 90 141 45 207 64 86 25 131-12t45-127V924q106 94 245 96zm-92-830q90 0 139.5 86T842 501.5 792.5 727 653 813t-139-86-49-225.5T514 276t139-86z" glyph-name="thorn" horiz-adv-x="1263" unicode="þ"/><glyph d="M1112 946q-2-29-18.5-51.5t-39-43-55-72.5T938 653Q799 295 735 119q-16-45-47-135t-46-132-46-105.5-58.5-95.5-71.5-62.5-97-43.5q-117-27-244 10T-16-317q-10 66 22.5 110.5T92-152q55 10 96-6t61.5-41.5 50.5-45 65-15.5q20 4 35.5 15.5t40 58.5T494-53q-10 25-62.5 132t-117 242.5T201 561q-35 72-61.5 116T75 768t-38 49q-25 35-35 50.5t-16 34-4 40.5q8 61 110 62h297q68 0 97.5-14.5T512 928q-2-20-22.5-68.5T485 774l166-399 103 278q39 123 34.5 162t-24 72-14.5 59q2 33 20 45.5t59 12.5h220q63-1 63-58zm-682 486q76 0 123-46.5t47-119.5q0-72-47-119t-123-47-124 47-48 119q0 74 48 120t124 46zm395.5 0q75.5 0 122.5-46.5t47-120-47-119.5-122.5-46-123 46-47.5 119.5 47.5 120 123 46.5z" glyph-name="ydieresis" horiz-adv-x="1132" unicode="ÿ"/><glyph d="M1319 461q43-106 89-181t74.5-99.5 45-53.5 12.5-66q-6-61-96-61H989Q889 0 881 61q-6 45 22.5 91.5t47 91.5-6.5 168l-10 28H418q-47-143-35-194t39-98.5T440 61Q426 0 344 0H109Q0 0 0 61q0 33 12.5 55.5t35 46 50 54.5 63.5 94.5T227 461q193 504 244 635 27 88 16.5 121.5t-35 75.5-22.5 77q6 63 96 64h299q68 0 100.5-25t53.5-82q6-16 61.5-157.5T1182 810t137-349zM494 635h364l-180 471zm485 1134q33 0 56.5-22.5t23.5-56.5v-33q0-35-23.5-57.5T979 1577H424q-33 0-56.5 23.5T344 1657v33q0 33 23.5 56t56.5 23h555z" glyph-name="Amacron" horiz-adv-x="1542" unicode="Ā"/><glyph d="M1051 244q18-18 46.5-34.5t40-31 9.5-41.5q-2-66-72.5-110.5T915-18q-213 0-262 131Q569-18 383-18q-164 0-258 77.5T31 264q0 193 158.5 272.5T639 616v29q0 68-4 107t-24.5 71.5T551 862q-109 14-141-86-55-176-209-123-47 16-72 64.5t0 109.5q74 193 442 193 440 0 441-426V420.5l1-39.5 3-34.5 5-33 7-27 9.5-24.5 13.5-18zM653 344v82q0 47-21.5 57.5T557 481q-59-10-101-53t-46-109q-4-68 27.5-107.5T535 172q118 0 118 172zm193 975q35 0 57.5-22.5T926 1239v-33q0-35-22.5-57.5T846 1126H291q-33 0-56.5 24t-23.5 56v33q0 33 23.5 56.5T291 1319h555z" glyph-name="amacron" horiz-adv-x="1159" unicode="ā"/><glyph d="M1319 461q43-106 89-181t74.5-99.5 45-53.5 12.5-66q-6-61-96-61H989Q889 0 881 61q-6 45 22.5 91.5t47 91.5-6.5 168l-10 28H418q-47-143-35-194t39-98.5T440 61Q426 0 344 0H109Q0 0 0 61q0 33 12.5 55.5t35 46 50 54.5 63.5 94.5T227 461q193 504 244 635 27 88 16.5 121.5t-35 75.5-22.5 77q6 63 96 64h299q68 0 100.5-25t53.5-82q6-16 61.5-157.5T1182 810t137-349zM494 635h364l-180 471zm434 1204q53 0 45-65-10-84-99-152-76-61-176-61-147 0-233 118-59 80-39 133 12 27 43 27 12 0 78.5-36t150.5-36 151 36 79 36z" glyph-name="Abreve" horiz-adv-x="1542" unicode="Ă"/><glyph d="M1051 244q18-18 46.5-34.5t40-31 9.5-41.5q-2-66-72.5-110.5T915-18q-213 0-262 131Q569-18 383-18q-164 0-258 77.5T31 264q0 193 158.5 272.5T639 616v29q0 68-4 107t-24.5 71.5T551 862q-109 14-141-86-55-176-209-123-47 16-72 64.5t0 109.5q74 193 442 193 440 0 441-426V420.5l1-39.5 3-34.5 5-33 7-27 9.5-24.5 13.5-18zM653 344v82q0 47-21.5 57.5T557 481q-59-10-101-53t-46-109q-4-68 27.5-107.5T535 172q118 0 118 172zm166 1045q53 0 45-66-10-84-98-152-76-61-176-61-147 0-234 119-59 80-39 133 12 27 43 27 12 0 78-36t152-36q84 0 150.5 36t78.5 36z" glyph-name="abreve" horiz-adv-x="1159" unicode="ă"/><glyph d="M1319 461q43-106 89-180t74.5-98.5 45-53.5 12.5-66q-6-63-96-63h-129q-61-80-76.5-144.5t10-102.5 84.5-44q43-4 54.5-36.5T1380-383q-35-53-110.5-68.5t-146 5-116.5 85T981-207q16 66 70.5 123T1169 0H989Q889 0 881 63q-6 45 22.5 91.5t48 91.5-5.5 168l-12 28H418q-45-143-33-194t38-97.5T440 63Q428 2 346 2H109Q0 2 0 63q0 39 20.5 69t50 55.5 74.5 97T229 461q156 414 242 635 29 88 17.5 122.5t-35 76.5-21.5 77q2 61 94 62h299q70 0 101.5-24t54.5-83q16-47 338-866zM494 635h366l-182 471z" glyph-name="Aogonek" horiz-adv-x="1542" unicode="Ą"/><glyph d="M1051 246q18-18 46.5-34.5t40-31 9.5-43.5q-2-47-42-85t-99-54q-88-123-79-201t99-88q43-4 55.5-36.5T1075-383q-35-53-110.5-68.5t-147.5 5-117 85T676-207Q703-90 838-12 693 8 653 115 569-18 383-18q-164 0-258 78.5T31 266q0 193 158.5 272.5T639 618v27q0 68-4 107t-24.5 72.5T551 862q-109 18-141-86-55-176-209-121-47 16-71 63.5T129 829q72 190 442 191 440 0 441-424V420.5l1-39.5 3-33.5 5-33 7-27 9.5-23.5 13.5-18zM653 346v82q0 45-21.5 56.5T557 483q-61-10-102-53t-45-108q-6-147 125-148 118 0 118 172z" glyph-name="aogonek" horiz-adv-x="1159" unicode="ą"/><glyph d="M1427 461q31-20-6-115-20-53-54-105.5t-97.5-116-171-103T858-18q-332 0-544 179T55 598Q20 801 75.5 975T253 1259.5 550 1420t368 18q98-18 152-6t69.5 33.5 34 46 45.5 30.5q49 8 70.5-20.5t33.5-98.5q8-45 74-397 8-47-9.5-73.5T1331 928q-33 2-69.5 50t-71.5 107.5-109.5 113.5-175.5 65q-211 20-326.5-132.5T481 745q20-223 129-361t316-148q72-4 134 11t102 39.5 76 55.5 56.5 58.5 46 48T1382 473t45-12zm-407 1284q31-61 1-120.5T911 1548q-84-20-258-32-45-8-75.5-5.5T535 1544q-4 8-5.5 15.5T528 1572t4.5 11 7.5 11 11 12.5 12 11.5 15.5 13 17.5 16q125 106 205 161 70 41 131 23t88-86z" glyph-name="Cacute" horiz-adv-x="1484" unicode="Ć"/><glyph d="M510 833.5Q436 821 402.5 727T395 494q27-145 125-217t216-58 208 98q45 41 76 17.5t6-80.5Q975 139 858 60.5T573-18q-225 0-380.5 125.5T23 471Q9 711 168.5 865.5T565 1020q125 0 231.5-41t163-103.5 75-139.5-33.5-146q-33-51-98-67.5t-126.5 15T698 641q-25 111-69.5 158T510 833.5zM782 1335q31-61 1.5-120.5T674 1139q-84-20-258-33-45-8-76-5t-43 34q-4 8-5 15t-1 12 4 11.5 7 11.5 11.5 12 12.5 11 15 13.5 17 15.5q125 106 205 162 70 41 131 22.5t88-86.5z" glyph-name="cacute" horiz-adv-x="1079" unicode="ć"/><glyph d="M1427 461q31-20-6-115-20-53-54-105.5t-97.5-116-171-103T858-18q-332 0-544 179T55 598Q20 801 75.5 975T253 1259.5 550 1420t368 18q98-18 152-6t69.5 33.5 34 46 45.5 30.5q49 8 70.5-20.5t33.5-98.5q8-45 74-397 8-47-9.5-73.5T1331 928q-33 2-69.5 50t-71.5 107.5-109.5 113.5-175.5 65q-211 20-326.5-132.5T481 745q20-223 129-361t316-148q72-4 134 11t102 39.5 76 55.5 56.5 58.5 46 48T1382 473t45-12zm-319 1157q25-31 11.5-52.5T1069 1544h-18q-63 0-289 139-225-139-289-139h-18q-37 0-50.5 21.5T416 1618q113 127 213 231 31 31 47 40t47 9h78q31 0 47-9t47-40q100-104 213-231z" glyph-name="Ccircumflex" horiz-adv-x="1484" unicode="Ĉ"/><glyph d="M510 833.5Q436 821 402.5 727T395 494q27-145 125-217t216-58 208 98q45 41 76 17.5t6-80.5Q975 139 858 60.5T573-18q-225 0-380.5 125.5T23 471Q9 711 168.5 865.5T565 1020q125 0 231.5-41t163-103.5 75-139.5-33.5-146q-33-51-98-67.5t-126.5 15T698 641q-25 111-69.5 158T510 833.5zM915 1167q25-31 11.5-52t-49.5-21h-19q-63 0-289 139-225-139-288-139h-19q-37 0-50 21.5t11 51.5q113 127 213 232 31 31 47.5 40t46.5 9h78q31 0 47.5-9t46.5-40q100-105 213-232z" glyph-name="ccircumflex" horiz-adv-x="1079" unicode="ĉ"/><glyph d="M1427 461q31-20-6-115-20-53-54-105.5t-97.5-116-171-103T858-18q-332 0-544 179T55 598Q20 801 75.5 975T253 1259.5 550 1420t368 18q98-18 152-6t69.5 33.5 34 46 45.5 30.5q49 8 70.5-20.5t33.5-98.5q8-45 74-397 8-47-9.5-73.5T1331 928q-33 2-69.5 50t-71.5 107.5-109.5 113.5-175.5 65q-211 20-326.5-132.5T481 745q20-223 129-361t316-148q72-4 134 11t102 39.5 76 55.5 56.5 58.5 46 48T1382 473t45-12zM784.5 1862q75.5 0 122.5-46.5t47-120-47-119.5-122.5-46-124 47-48.5 119q0 74 48.5 120t124 46z" glyph-name="Cdotaccent" horiz-adv-x="1484" unicode="Ċ"/><glyph d="M510 833.5Q436 821 402.5 727T395 494q27-145 125-217t216-58 208 98q45 41 76 17.5t6-80.5Q975 139 858 60.5T573-18q-225 0-380.5 125.5T23 471Q9 711 168.5 865.5T565 1020q125 0 231.5-41t163-103.5 75-139.5-33.5-146q-33-51-98-67.5t-126.5 15T698 641q-25 111-69.5 158T510 833.5zm41 598.5q76 0 123-46.5t47-120-47-119.5-123-46-124 47-48 119q0 74 48 120t124 46z" glyph-name="cdotaccent" horiz-adv-x="1079" unicode="ċ"/><glyph d="M1427 461q31-20-6-115-20-53-54-105.5t-97.5-116-171-103T858-18q-332 0-544 179T55 598Q20 801 75.5 975T253 1259.5 550 1420t368 18q98-18 152-6t69.5 33.5 34 46 45.5 30.5q49 8 70.5-20.5t33.5-98.5q8-45 74-397 8-47-9.5-73.5T1331 928q-33 2-69.5 50t-71.5 107.5-109.5 113.5-175.5 65q-211 20-326.5-132.5T481 745q20-223 129-361t316-148q72-4 134 11t102 39.5 76 55.5 56.5 58.5 46 48T1382 473t45-12zm-337 1437q35 0 49-21.5t-11-53.5q-61-70-213-230-31-31-47-40t-49-9h-76q-33 0-49 9.5t-45 39.5q-111 113-215 230-25 33-10.5 54t51.5 21h19q47 0 288-139 231 139 289 139h19z" glyph-name="Ccaron" horiz-adv-x="1484" unicode="Č"/><glyph d="M510 833.5Q436 821 402.5 727T395 494q27-145 125-217t216-58 208 98q45 41 76 17.5t6-80.5Q975 139 858 60.5T573-18q-225 0-380.5 125.5T23 471Q9 711 168.5 865.5T565 1020q125 0 231.5-41t163-103.5 75-139.5-33.5-146q-33-51-98-67.5t-126.5 15T698 641q-25 111-69.5 158T510 833.5zM877 1468q35 0 49-21.5t-11-53.5q-61-70-213-230-31-31-47-40t-49-9h-76q-33 0-49 9.5t-45 39.5q-111 113-215 230-25 33-10.5 54t51.5 21h19q47 0 288-139 231 139 289 139h19z" glyph-name="ccaron" horiz-adv-x="1079" unicode="č"/><glyph d="M655 1434q367 0 589-198t222-519.5-222-519T655 0H158Q66 0 63 61q-2 27 10.5 52.5T129 199q27 35 33 88t6 174v512q0 119-6 172t-33 90q-43 59-55.5 83.5T63 1370q2 63 95 64h497zm45-1239q141 0 231.5 148.5T1022 717t-91 374.5T700 1241h-10q-80 0-107.5-47T555 1018V416q0-127 27.5-174T690 195h10zm310 1703q35 0 49-21.5t-10-53.5q-61-70-213-230-31-31-47.5-40t-49.5-9h-75q-33 0-49.5 9.5T569 1593q-111 113-215 230-25 33-10.5 54t51.5 21h19q47 0 288-139 231 139 289 139h19z" glyph-name="Dcaron" horiz-adv-x="1486" unicode="Ď"/><glyph d="M1155 199q43-59 55.5-85t10.5-53q-2-61-95-61H903Q776 0 750 86 644-12 498-18q-219-6-348.5 139T20 501.5t129.5 381T498 1020q141-2 243-94 0 172-39 225-68 94-65 137 6 61 96 90 33 10 114 35t91 29q86 25 132-13t46-126V461q0-121 6-174t33-88zm-565-11q90 0 139 86t49 228q0 139-49 225t-139 86q-92 0-141.5-85T399 501.5 448.5 274 590 188zm831 1262q82 0 135.5-56.5T1610 1247q0-113-49.5-218T1427 860q-57-43-94-12t8 92q47 61 62 141-76 6-123 56.5t-47 128.5q0 82 52 133t136 51z" glyph-name="dcaron" horiz-adv-x="1589" unicode="ď"/><glyph d="M657 1434q367 0 588-198t221-519.5-221-519T657 0H160Q70 0 63 61q-2 43 66 138 27 37 34 91t7 171v170h-27q-33 0-56.5 23.5T63 711v12q0 33 24 56.5t56 23.5h27v170q0 115-7 170t-34 92q-41 57-54.5 82.5T63 1370q6 63 97 64h497zm43-1239q141 0 231.5 148.5T1022 717t-90 373.5T700 1239h-10q-80 0-106.5-46T557 1018V803h199q33 0 56.5-23.5T836 723v-12q0-33-24-56.5T756 631H557V416q0-129 26.5-175T690 195h10z" glyph-name="Dcroat" horiz-adv-x="1486" unicode="Đ"/><glyph d="M1235 1159q23 0 40-16.5t17-38.5v-2q0-25-17.5-41.5T1235 1044h-119V461q0-121 6-174.5t33-87.5q68-94 66-138-4-61-95-61H903Q776 0 750 86 641-16 498-18q-219-8-348.5 138T20 501.5t129.5 380T498 1020q145-6 243-94 0 86-4 118H549q-23 0-40 16.5t-17 41.5v2q0 23 17 39t40 16h147q-61 88-59 129 6 61 94 90 141 45 207 64 86 25 132-13t46-126v-144h119zM590 190q90 0 139 86t49 225.5T729 727t-139 86q-92 0-141.5-85T399 501.5 448.5 275 590 190z" glyph-name="dcroat" horiz-adv-x="1243" unicode="đ"/><glyph d="M1180 506q39 0 61.5-25.5t14-73-27-148.5-24.5-142q-10-66-40.5-91.5T1069 0H158Q66 0 63 61q-2 43 66 138 27 35 33 88t6 174v512q0 119-6 172t-33 90q-41 57-54.5 82.5T63 1370q2 63 95 64h868q66 0 96.5-27t40.5-92q6-35 23.5-137.5T1212 1026q8-47-13-73.5t-62-26.5q-43 0-82 32.5t-54.5 59T956 1102q-76 137-227 139-102-4-137-54t-35-214V827q115 6 148 35 18 16 38.5 43t35 38 34.5 11q27 0 39-18t14-37.5 2-60.5V625q0-41-2-60.5t-14-38-39-18.5q-20 0-34.5 11t-35 38-38.5 43q-33 29-148 35V461q0-168 37-218t147-50h27q160 0 229 139 2 2 12.5 22.5T1023 379t13.5 22.5T1052 426t16 20.5 18.5 20.5 19.5 15.5 22.5 13.5 24 7 27.5 3zM936 1769q35 0 57.5-22.5t22.5-56.5v-33q0-35-22.5-57.5T936 1577H381q-33 0-56.5 23.5T301 1657v33q0 33 23.5 56t56.5 23h555z" glyph-name="Emacron" horiz-adv-x="1298" unicode="Ē"/><glyph d="M963 303q45 43 76.5 18.5t4.5-81.5Q993 125 882.5 53.5T602-18q-109 0-209 31.5t-182 92T78 264 23 487q-8 254 159.5 398.5T592 1020q209-6 327.5-123T1053 635q10-106-17.5-148.5T911 444H406q23-125 126-187t226-48 205 94zM561 854q-115-8-153-186-4-16 2-29.5t20-13.5h240q37 0 52 25.5t3 70.5q-35 145-164 133zm303 465q33 0 56.5-22.5T944 1239v-33q0-35-23.5-57.5T864 1126H309q-33 0-56.5 24t-23.5 56v33q0 33 23.5 56.5T309 1319h555z" glyph-name="emacron" horiz-adv-x="1097" unicode="ē"/><glyph d="M1180 506q39 0 61.5-25.5t14-73-27-148.5-24.5-142q-10-66-40.5-91.5T1069 0H158Q66 0 63 61q-2 43 66 138 27 35 33 88t6 174v512q0 119-6 172t-33 90q-41 57-54.5 82.5T63 1370q2 63 95 64h868q66 0 96.5-27t40.5-92q6-35 23.5-137.5T1212 1026q8-47-13-73.5t-62-26.5q-43 0-82 32.5t-54.5 59T956 1102q-76 137-227 139-102-4-137-54t-35-214V827q115 6 148 35 18 16 38.5 43t35 38 34.5 11q27 0 39-18t14-37.5 2-60.5V625q0-41-2-60.5t-14-38-39-18.5q-20 0-34.5 11t-35 38-38.5 43q-33 29-148 35V461q0-168 37-218t147-50h27q160 0 229 139 2 2 12.5 22.5T1023 379t13.5 22.5T1052 426t16 20.5 18.5 20.5 19.5 15.5 22.5 13.5 24 7 27.5 3zM889 1839q53 0 45-65-10-84-98-152-76-61-177-61-147 0-233 118-59 80-39 133 12 27 43 27 12 0 77.5-36t151.5-36q84 0 151 36t79 36z" glyph-name="Ebreve" horiz-adv-x="1298" unicode="Ĕ"/><glyph d="M963 303q45 43 76.5 18.5t4.5-81.5Q993 125 882.5 53.5T602-18q-109 0-209 31.5t-182 92T78 264 23 487q-8 254 159.5 398.5T592 1020q209-6 327.5-123T1053 635q10-106-17.5-148.5T911 444H406q23-125 126-187t226-48 205 94zM561 854q-115-8-153-186-4-16 2-29.5t20-13.5h240q37 0 52 25.5t3 70.5q-35 145-164 133zm256 535q53 0 45-66-10-84-98-152-76-61-176-61-147 0-234 119-59 80-39 133 12 27 43 27 16 0 44-18.5t75-36 111-17.5q84 0 150.5 36t78.5 36z" glyph-name="ebreve" horiz-adv-x="1097" unicode="ĕ"/><glyph d="M1180 506q39 0 61.5-25.5t14-73-27-148.5-24.5-142q-10-66-40.5-91.5T1069 0H158Q66 0 63 61q-2 43 66 138 27 35 33 88t6 174v512q0 119-6 172t-33 90q-41 57-54.5 82.5T63 1370q2 63 95 64h868q66 0 96.5-27t40.5-92q6-35 23.5-137.5T1212 1026q8-47-13-73.5t-62-26.5q-43 0-82 32.5t-54.5 59T956 1102q-76 137-227 139-102-4-137-54t-35-214V827q115 6 148 35 18 16 38.5 43t35 38 34.5 11q27 0 39-18t14-37.5 2-60.5V625q0-41-2-60.5t-14-38-39-18.5q-20 0-34.5 11t-35 38-38.5 43q-33 29-148 35V461q0-168 37-218t147-50h27q160 0 229 139 2 2 12.5 22.5T1023 379t13.5 22.5T1052 426t16 20.5 18.5 20.5 19.5 15.5 22.5 13.5 24 7 27.5 3zM659.5 1862q75.5 0 122.5-46.5t47-120-47-119.5-122.5-46-124 47-48.5 119q0 74 48.5 120t124 46z" glyph-name="Edotaccent" horiz-adv-x="1298" unicode="Ė"/><glyph d="M963 303q45 43 76.5 18.5t4.5-81.5Q993 125 882.5 53.5T602-18q-109 0-209 31.5t-182 92T78 264 23 487q-8 254 159.5 398.5T592 1020q209-6 327.5-123T1053 635q10-106-17.5-148.5T911 444H406q23-125 126-187t226-48 205 94zM561 854q-115-8-153-186-4-16 2-29.5t20-13.5h240q37 0 52 25.5t3 70.5q-35 145-164 133zm27 578q76 0 123-46.5t47-120-47-119.5-123-46-124 47-48 119q0 74 48 120t124 46z" glyph-name="edotaccent" horiz-adv-x="1097" unicode="ė"/><glyph d="M1180 508q39 0 61.5-26.5T1255 410q-8-47-26.5-148.5T1204 119q-10-66-40.5-92.5T1069 0h-18q-90-123-81-202t99-89q45-4 57.5-36.5T1118-383q-35-53-110.5-68.5t-147.5 5-117 85T719-207q14 66 68.5 122T905 0H160Q70 0 63 63q-2 41 66 138 27 37 34 91t7 169v512q0 117-7 171t-34 91q-68 94-66 137 6 61 97 62h866q66 0 96.5-26t40.5-91q6-39 23.5-140.5T1212 1026q8-47-13-72.5t-62-25.5q-33 0-60.5 14t-52.5 47-35 51.5-33 61.5q-76 137-227 139-102-2-137-53t-35-215V829q113 4 148 33 20 18 40.5 44t34 37 33.5 11q27 0 39-18t14-37.5 2-60.5V627q0-31-1-46.5t-6-36-16-27.5-31.5-7-34 11-34 37-40.5 44q-35 29-148 33V461q0-166 37-216t147-50h27q158 0 229 137 59 115 99 145 37 31 84 31z" glyph-name="Eogonek" horiz-adv-x="1298" unicode="Ę"/><glyph d="M963 305q45 43 75.5 17.5t5.5-80.5Q970 72 791 12q-66-82-84.5-150.5t7-107.5 85.5-45q45-4 57-36.5t-8-55.5q-35-53-110.5-68.5t-147.5 5-117 85T449-207q12 55 55 106.5T602-16q-231 0-401 131T23 487q-8 254 158.5 397.5T590 1020q209-6 328.5-123T1053 637q10-109-17.5-150T911 446H406q23-125 126-188t225-49 206 96zM406 670q-4-18 3-31.5t21-13.5h240q35 0 50 25.5t5 70.5q-33 145-164 135-112-8-155-186z" glyph-name="eogonek" horiz-adv-x="1097" unicode="ę"/><glyph d="M1180 506q39 0 61.5-25.5t14-73-27-148.5-24.5-142q-10-66-40.5-91.5T1069 0H158Q66 0 63 61q-2 43 66 138 27 35 33 88t6 174v512q0 119-6 172t-33 90q-41 57-54.5 82.5T63 1370q2 63 95 64h868q66 0 96.5-27t40.5-92q6-35 23.5-137.5T1212 1026q8-47-13-73.5t-62-26.5q-43 0-82 32.5t-54.5 59T956 1102q-76 137-227 139-102-4-137-54t-35-214V827q115 6 148 35 18 16 38.5 43t35 38 34.5 11q27 0 39-18t14-37.5 2-60.5V625q0-41-2-60.5t-14-38-39-18.5q-20 0-34.5 11t-35 38-38.5 43q-33 29-148 35V461q0-168 37-218t147-50h27q160 0 229 139 2 2 12.5 22.5T1023 379t13.5 22.5T1052 426t16 20.5 18.5 20.5 19.5 15.5 22.5 13.5 24 7 27.5 3zM967 1898q35 0 49-21.5t-10-53.5q-61-70-213-230-31-31-47.5-40t-49.5-9h-75q-33 0-49.5 9.5T526 1593q-111 113-215 230-25 33-10.5 54t51.5 21h19q47 0 288-139 231 139 289 139h19z" glyph-name="Ecaron" horiz-adv-x="1298" unicode="Ě"/><glyph d="M963 303q45 43 76.5 18.5t4.5-81.5Q993 125 882.5 53.5T602-18q-109 0-209 31.5t-182 92T78 264 23 487q-8 254 159.5 398.5T592 1020q209-6 327.5-123T1053 635q10-106-17.5-148.5T911 444H406q23-125 126-187t226-48 205 94zM561 854q-115-8-153-186-4-16 2-29.5t20-13.5h240q37 0 52 25.5t3 70.5q-35 145-164 133zm332 614q35 0 49-21.5t-10-53.5q-61-70-213-230-31-31-47.5-40t-48.5-9h-76q-33 0-49.5 9.5T453 1163q-111 113-215 230-25 33-10.5 54t51.5 21h18q47 0 289-139 231 139 288 139h19z" glyph-name="ecaron" horiz-adv-x="1097" unicode="ě"/><glyph d="M1552 702q2-47-55-137-27-39-32-69.5t-5-135.5v-41q0-156-149.5-246.5T870-18q-334 0-552 180T55 598Q20 801 75.5 975T253 1259.5 549 1420t366 18q98-18 152.5-6t70 33.5 34 46 47.5 30.5q49 8 69.5-19.5t34.5-99.5q68-369 72-397 8-47-8.5-73.5T1331 928q-33 2-69.5 50t-71.5 107.5-109.5 113.5-175.5 65q-211 20-326.5-132.5T481 745q18-221 127-360t316-149q111-6 178 26v43q0 119-6 172t-33 88q-70 98-68 137 6 61 97 62h368q86-1 92-62zm-409 916q25-31 11.5-52.5T1104 1544h-19q-61 0-288 139-225-139-289-139h-19q-37 0-50 21.5t12 52.5q113 127 213 231 31 31 47 40t47 9h78q31 0 47-9t47-40q100-104 213-231z" glyph-name="Gcircumflex" horiz-adv-x="1574" unicode="Ĝ"/><glyph d="M618 150h172.5l85-5.5 86-14.5 69.5-28.5 59.5-46 33-67.5 9.5-92q-6-102-64.5-176t-151-112T729-446.5 528.5-463 334-450.5t-172 40-125 82T2-201Q14-86 121-47 21 27 45 150q20 111 172 180Q76 443 76 623t134 288.5T553 1020q61 0 121-12 6 197 141 252 104 41 182-5.5t62-138.5q-12-61-64.5-95t-111.5-3q-18 10-38 25.5t-29 22.5-24.5 12-25.5-5q-20-14-2-88 125-45 195.5-139t70.5-223q0-178-134-287T553 227q-139 0-244 49-41-47-26-77 20-49 335-49zm-65 698q-68 0-101.5-61.5t-33.5-164 34.5-164T553 397q68 0 101.5 61.5T688 623q0 225-135 225zm22-1133q244-6 244 76 0 18-14 29.5T762-165t-55.5 4-67.5 0-64-1q-92 2-148 9.5T343-137t-38 8q-14-33-14-53-1-95 284-103zm338 1452q25-31 11.5-52t-50.5-21h-18q-61 0-289 139-225-139-288-139h-19q-37 0-50 21.5t11 51.5q113 127 213 232 31 31 47.5 40t46.5 9h78q31 0 47.5-9t46.5-40q100-105 213-232z" glyph-name="gcircumflex" horiz-adv-x="1134" unicode="ĝ"/><glyph d="M1552 702q2-47-55-137-27-39-32-69.5t-5-135.5v-41q0-156-149.5-246.5T870-18q-334 0-552 180T55 598Q20 801 75.5 975T253 1259.5 549 1420t366 18q98-18 152.5-6t70 33.5 34 46 47.5 30.5q49 8 69.5-19.5t34.5-99.5q68-369 72-397 8-47-8.5-73.5T1331 928q-33 2-69.5 50t-71.5 107.5-109.5 113.5-175.5 65q-211 20-326.5-132.5T481 745q18-221 127-360t316-149q111-6 178 26v43q0 119-6 172t-33 88q-70 98-68 137 6 61 97 62h368q86-1 92-62zm-483 1137q53 0 45-65-10-84-98-152-76-61-176-61-147 0-234 118-59 80-39 133 12 27 43 27 12 0 78-36t152-36q84 0 150.5 36t78.5 36z" glyph-name="Gbreve" horiz-adv-x="1574" unicode="Ğ"/><glyph d="M618 150h172.5l85-5.5 86-14.5 69.5-28.5 59.5-46 33-67.5 9.5-92q-6-102-64.5-176t-151-112T729-446.5 528.5-463 334-450.5t-172 40-125 82T2-201Q14-86 121-47 21 27 45 150q20 111 172 180Q76 443 76 623t134 288.5T553 1020q61 0 121-12 6 197 141 252 104 41 182-5.5t62-138.5q-12-61-64.5-95t-111.5-3q-18 10-38 25.5t-29 22.5-24.5 12-25.5-5q-20-14-2-88 125-45 195.5-139t70.5-223q0-178-134-287T553 227q-139 0-244 49-41-47-26-77 20-49 335-49zm-65 698q-68 0-101.5-61.5t-33.5-164 34.5-164T553 397q68 0 101.5 61.5T688 623q0 225-135 225zm22-1133q244-6 244 76 0 18-14 29.5T762-165t-55.5 4-67.5 0-64-1q-92 2-148 9.5T343-137t-38 8q-14-33-14-53-1-95 284-103zm222 1694q53 0 45-66-10-84-99-151-76-61-176-62-147 0-233 119-59 80-39 133 12 27 43 27 12 0 78.5-36t150.5-36 151 36 79 36z" glyph-name="gbreve" horiz-adv-x="1134" unicode="ğ"/><glyph d="M1552 702q2-47-55-137-27-39-32-69.5t-5-135.5v-41q0-156-149.5-246.5T870-18q-334 0-552 180T55 598Q20 801 75.5 975T253 1259.5 549 1420t366 18q98-18 152.5-6t70 33.5 34 46 47.5 30.5q49 8 69.5-19.5t34.5-99.5q68-369 72-397 8-47-8.5-73.5T1331 928q-33 2-69.5 50t-71.5 107.5-109.5 113.5-175.5 65q-211 20-326.5-132.5T481 745q18-221 127-360t316-149q111-6 178 26v43q0 119-6 172t-33 88q-70 98-68 137 6 61 97 62h368q86-1 92-62zM839.5 1862q75.5 0 123-46.5t47.5-120-47.5-119.5-123-46-123.5 47-48 119q0 74 48 120t123.5 46z" glyph-name="Gdotaccent" horiz-adv-x="1574" unicode="Ġ"/><glyph d="M618 150h172.5l85-5.5 86-14.5 69.5-28.5 59.5-46 33-67.5 9.5-92q-6-102-64.5-176t-151-112T729-446.5 528.5-463 334-450.5t-172 40-125 82T2-201Q14-86 121-47 21 27 45 150q20 111 172 180Q76 443 76 623t134 288.5T553 1020q61 0 121-12 6 197 141 252 104 41 182-5.5t62-138.5q-12-61-64.5-95t-111.5-3q-18 10-38 25.5t-29 22.5-24.5 12-25.5-5q-20-14-2-88 125-45 195.5-139t70.5-223q0-178-134-287T553 227q-139 0-244 49-41-47-26-77 20-49 335-49zm-65 698q-68 0-101.5-61.5t-33.5-164 34.5-164T553 397q68 0 101.5 61.5T688 623q0 225-135 225zm22-1133q244-6 244 76 0 18-14 29.5T762-165t-55.5 4-67.5 0-64-1q-92 2-148 9.5T343-137t-38 8q-14-33-14-53-1-95 284-103zm-7.5 1737q75.5 0 122.5-46t47-120-47-120-122.5-46-124 47-48.5 119q0 74 48.5 120t124 46z" glyph-name="gdotaccent" horiz-adv-x="1134" unicode="ġ"/><glyph d="M1552 702q2-47-55-137-27-39-32-69.5t-5-135.5v-41q0-156-149.5-246.5T870-18q-334 0-552 180T55 598Q20 801 75.5 975T253 1259.5 549 1420t366 18q98-18 152.5-6t70 33.5 34 46 47.5 30.5q49 8 69.5-19.5t34.5-99.5q68-369 72-397 8-47-8.5-73.5T1331 928q-33 2-69.5 50t-71.5 107.5-109.5 113.5-175.5 65q-211 20-326.5-132.5T481 745q18-221 127-360t316-149q111-6 178 26v43q0 119-6 172t-33 88q-70 98-68 137 6 61 97 62h368q86-1 92-62zM858-86q74 0 122-50t48-130q0-102-43-197.5T866-614q-51-37-84.5-10.5T788-543q43 61 54 127-70 6-111 51.5T690-252q0 74 46 120t122 46z" glyph-name="Gcommaaccent" horiz-adv-x="1574" unicode="Ģ"/><glyph d="M618 150h172.5l85-5.5 86-14.5 69.5-28.5 59.5-46 33-67.5 9.5-92q-6-102-64.5-176t-151-112T729-446.5 528.5-463 334-450.5t-172 40-125 82T2-201Q14-86 121-47 21 27 45 150q20 111 172 180Q76 443 76 623t134 288.5T553 1020q61 0 121-12 6 197 141 252 104 41 182-5.5t62-138.5q-12-61-64.5-95t-111.5-3q-18 10-38 25.5t-29 22.5-24.5 12-25.5-5q-20-14-2-88 125-45 195.5-139t70.5-223q0-178-134-287T553 227q-139 0-244 49-41-47-26-77 20-49 335-49zm-65 698q-68 0-101.5-61.5t-33.5-164 34.5-164T553 397q68 0 101.5 61.5T688 623q0 225-135 225zm22-1133q244-6 244 76 0 18-14 29.5T762-165t-55.5 4-67.5 0-64-1q-92 2-148 9.5T343-137t-38 8q-14-33-14-53-1-95 284-103zm-8 1444q-84 0-137 55.5T377 1362q0 115 49 220.5T559 1749q57 43 95 12.5t-9-92.5q-49-68-59-141 76-6 123-56.5t47-128.5q0-80-52.5-132T567 1159z" glyph-name="gcommaaccent" horiz-adv-x="1134" unicode="ģ"/><glyph d="M1444 461q0-121 6-174.5t33-87.5q70-96 67-138-6-61-96-61h-407q-90 0-97 61-2 41 68 138 27 35 33 88t6 174v174H557V461q0-121 6-174.5t33-87.5q70-96 68-138-6-61-97-61H160Q70 0 63 61q-2 41 68 138 27 35 33 88t6 174v512q0 119-6 172t-33 90q-43 59-56.5 83.5T63 1370q6 63 97 64h407q90 0 97-64 2-27-11.5-51.5T596 1235q-27-37-33-90t-6-172V827h500v146q0 119-6.5 172t-32.5 90q-43 59-56.5 83.5T950 1370q6 63 97 64h407q90 0 96-64 2-27-11-51.5t-56-83.5q-27-37-33-90t-6-172V461zm-291 1157q25-31 11.5-52.5T1114 1544h-18q-63 0-289 139-225-139-289-139h-18q-37 0-50.5 21.5T461 1618q113 127 213 231 31 31 47 40t47 9h78q31 0 47-9t47-40q100-104 213-231z" glyph-name="Hcircumflex" horiz-adv-x="1613" unicode="Ĥ"/><glyph d="M1219 199q70-96 67-138-6-61-96-61H797q-90 0-97 61-2 27 11.5 54.5T768 199q27 35 33 88t6 174v20q0 59-1 89t-8 83.5-21.5 80-43 48T662 803q-139 0-140-197V461q0-121 6.5-174.5T561 199q43-59 55.5-85T627 61q-2-61-95-61H139Q49 0 43 61q-2 43 66 138 27 37 34 91t7 169v430q0 117-7.5 171t-33.5 91q-68 94-66 137 6 61 96 90 33 10 114 35t91 29q88 25 133-12t45-127V891q133 129 297 129 184 0 272.5-100.5T1180 682V461q0-121 6-174t33-88zM774 1618q25-31 11.5-52.5T735 1544h-18q-61 0-289 139-227-139-289-139h-18q-37 0-50.5 21.5T82 1618q113 127 213 231 31 31 47 40t47 9h78q31 0 47-9t47-40q100-104 213-231z" glyph-name="hcircumflex" horiz-adv-x="1308" unicode="ĥ"/><glyph d="M1540 1133q33 0 56.5-24t23.5-56v-13q0-33-23.5-56t-56.5-23h-96V461q0-121 6-174.5t33-87.5q43-59 55-85t10-53q-2-61-94-61h-407q-90 0-97 61-2 41 68 138 27 35 33 88t6 174v174H557V461q0-121 6-174.5t33-87.5q43-59 55.5-85T662 61q-2-61-95-61H160Q70 0 63 61q-2 41 68 138 27 35 33 88t6 174v500H74q-33 0-56.5 23.5T-6 1040v13q0 33 23.5 56.5T74 1133h90q-6 59-33 102-43 59-56.5 83.5T63 1370q6 63 97 64h407q92 0 95-64 2-27-10.5-51.5T596 1235q-27-43-33-102h488q-6 59-33 102-43 59-56.5 83.5T950 1370q6 63 97 64h407q92 0 94-64 2-27-10-51.5t-55-83.5q-27-43-33-102h90zm-483-306v134H557V827h500z" glyph-name="Hbar" horiz-adv-x="1613" unicode="Ħ"/><glyph d="M1221 199q43-59 55-85t10-53q-4-61-94-61H799q-90 0-97 61-2 43 66 138 27 35 33 88t6 174v20q0 61-1 91t-8 82.5-21.5 79-43 48T662 803q-137 0-138-197V461q0-121 6.5-174.5T563 199q68-94 66-138-2-61-94-61H139Q51 0 45 61q-2 43 66 138 27 35 33 88t6 172v430q0 117-5 155H31q-23 0-40.5 16.5T-27 1102v2q0 23 17.5 39t40.5 16h73q-61 88-59 129 6 61 94 90 141 45 207 64 86 25 132-13t46-126v-144h193q25 0 41-16.5t16-38.5v-2q0-25-16.5-41.5T717 1044H524V891q133 129 297 129 184 0 272.5-100.5T1182 682V461q0-121 6-174t33-88z" glyph-name="hbar" horiz-adv-x="1308" unicode="ħ"/><glyph d="M551 461q0-121 6-174.5t33-87.5q43-59 55-85t10-53q-2-61-94-61H154Q64 0 57 61q-2 27 11.5 54.5T125 199q27 35 33 88t6 174v512q0 119-6 172t-33 90q-43 57-56.5 82.5T57 1370q6 63 97 64h407q92 0 94-64 2-27-10-51.5t-55-83.5q-27-37-33-90t-6-172V461zm74 1304q25 20 48 24.5t37.5-9T723 1741q-8-76-61.5-143.5T502 1530q-51 0-112.5 22.5t-102.5 43-90.5 17.5-90.5-46q-43-43-79.5-25.5T6 1612q29 94 77 149.5t142 55.5q59 0 122-22.5t101.5-44 86-22T625 1765z" glyph-name="Itilde" horiz-adv-x="724" unicode="Ĩ"/><glyph d="M573 199q68-94 66-138-6-61-94-61H150Q58 0 55 61q-2 27 10.5 52.5T121 199q27 35 33 88t6 174q0 119-6.5 172T121 721q-43 59-55.5 84.5T55 858q2 59 95 90 141 45 206 64 86 25 132.5-12T535 874V461q0-121 5.5-174t32.5-88zm2 1157q25 20 48.5 24t38-9 12.5-40q-8-76-61.5-143.5T453 1120q-51 0-112.5 22.5t-102.5 43-90.5 17.5-90.5-46q-43-43-79.5-25.5T-43 1202q29 94 77 149.5t142 55.5q59 0 121.5-22.5t101.5-44 86-21.5 90 37z" glyph-name="itilde" unicode="ĩ"/><glyph d="M557 461q0-121 6-174.5t33-87.5q43-59 55.5-85T662 61q-2-61-95-61H160Q70 0 63 61q-2 27 11.5 54.5T131 199q27 35 33 88t6 174v512q0 119-6 172t-33 90q-43 57-56.5 82.5T63 1370q6 63 97 64h407q92 0 95-64 2-27-10.5-51.5T596 1235q-27-37-33-90t-6-172V461zm84 1308q35 0 57.5-22.5T721 1690v-33q0-35-22.5-57.5T641 1577H86q-33 0-56.5 23.5T6 1657v33q0 33 23.5 56t56.5 23h555z" glyph-name="Imacron" horiz-adv-x="724" unicode="Ī"/><glyph d="M561 199q68-94 66-138-6-61-95-61H137Q45 0 43 61q-2 27 10.5 52.5T109 199q27 35 32.5 88t5.5 174q0 119-6 172t-32 88q-43 59-55.5 84.5T43 858q2 59 94 90 141 45 207 64 86 25 132-12t46-126V461q0-121 6-174t33-88zm31 1140q35 0 57.5-22.5T672 1260v-33q0-35-22.5-57.5T592 1147H37q-33 0-56.5 23.5T-43 1227v33q0 33 23.5 56t56.5 23h555z" glyph-name="imacron" unicode="ī"/><glyph d="M557 461q0-121 6-174.5t33-87.5q43-59 55.5-85T662 61q-2-61-95-61H160Q70 0 63 61q-2 27 11.5 54.5T131 199q27 35 33 88t6 174v512q0 119-6 172t-33 90q-43 57-56.5 82.5T63 1370q6 63 97 64h407q92 0 95-64 2-27-10.5-51.5T596 1235q-27-37-33-90t-6-172V461zm35 1378q53 0 45-65-10-84-98-152-76-61-177-61-147 0-233 118-59 80-39 133 12 27 43 27 16 0 44-18.5t75-36 110-17.5q84 0 151 36t79 36z" glyph-name="Ibreve" horiz-adv-x="724" unicode="Ĭ"/><glyph d="M563 199q68-94 66-138-6-61-94-61H139Q47 0 45 61q-2 27 10.5 52.5T111 199q27 35 33 88t6 174q0 119-6.5 172T111 721q-43 59-55.5 84.5T45 858q2 59 94 90 141 45 207 64 86 25 132-12t46-126V461q0-121 6-174t33-88zm-16 1210q53 0 45-66-10-84-98-151-76-61-177-62-147 0-233 119-59 80-39 133 12 27 43 27 16 0 44-18.5t75-36 110-17.5q84 0 151 36t79 36z" glyph-name="ibreve" unicode="ĭ"/><glyph d="M557 461q0-119 6-172t33-88q43-61 55.5-86T662 63q-2-63-95-63h-73q-90-123-81-202t99-89q45-4 57.5-36.5T561-383q-35-53-110.5-68.5t-147.5 5-117 85T162-207q14 66 68.5 122T348 0H160Q70 0 63 63q-2 39 68 138 27 35 33 88t6 172v512q0 121-6 174t-33 88q-70 96-68 137 6 61 97 62h407q92 0 95-62 2-27-10.5-52.5T596 1235q-27-35-33-88t-6-174V461z" glyph-name="Iogonek" horiz-adv-x="724" unicode="Į"/><glyph d="M561 201q43-61 55.5-86T627 63q-2-63-95-63h-67q-88-123-80-202t98-89q45-4 57.5-36.5T532-383q-35-53-110.5-68.5t-147 5-116.5 85T133-207q14 63 68.5 120.5T319 0H139Q49 0 43 63q-2 41 66 138 27 35 32.5 88t5.5 172-6 173-32 89q-41 57-54.5 82.5T43 858q6 63 96 92 20 6 71.5 21.5t87.5 27 46 13.5q86 25 132-12t46-126V461q0-119 6-172t33-88zm-254 907q-96 0-164.5 62.5T74 1321t68.5 150.5T307 1534q94 0 163-62.5t69-150.5-69-150.5-163-62.5z" glyph-name="iogonek" unicode="į"/><glyph d="M557 461q0-121 6-174.5t33-87.5q43-59 55.5-85T662 61q-2-61-95-61H160Q70 0 63 61q-2 27 11.5 54.5T131 199q27 35 33 88t6 174v512q0 119-6 172t-33 90q-43 57-56.5 82.5T63 1370q6 63 97 64h407q92 0 95-64 2-27-10.5-51.5T596 1235q-27-37-33-90t-6-172V461zM362.5 1862q75.5 0 122.5-46.5t47-120-47-119.5-122.5-46-124 47-48.5 119q0 74 48.5 120t124 46z" glyph-name="Idotaccent" horiz-adv-x="724" unicode="İ"/><glyph d="M561 199q68-94 66-138-6-61-95-61H137Q45 0 43 61q-2 27 10.5 52.5T109 199q27 35 32.5 88t5.5 174q0 119-6 172t-32 88q-43 59-55.5 84.5T43 858q2 59 94 90 141 45 207 64 86 25 132-12t46-126V461q0-121 6-174t33-88z" glyph-name="dotlessi" unicode="ı"/><glyph d="M557 461q0-121 6-174.5t33-87.5q43-59 55.5-85T662 61q-2-61-95-61H160Q70 0 63 61q-2 27 11.5 54.5T131 199q27 35 33 88t6 174v512q0 119-6 172t-33 90q-43 57-56.5 82.5T63 1370q6 63 97 64h407q92 0 95-64 2-27-10.5-51.5T596 1235q-27-37-33-90t-6-172V461zm1290 909q2-27-10-51.5t-55-83.5q-27-37-33-90t-6-172V616q0-332-116-483T1237-18q-137 0-243.5 34.5t-164 89-85 117T728 343t54 97q53 51 132 44t126-78q18-29 38-94.5t47.5-103.5 80.5-42q90-8 120 79t30 330v480q-4 139-39 180-86 92-82 135 8 63 96 64h422q92-1 94-64z" glyph-name="IJ" horiz-adv-x="1910" unicode="Ĳ"/><glyph d="M561 199q68-94 66-138-6-61-95-61H137Q45 0 43 61q-2 27 10.5 52.5T109 199q27 35 32.5 88t5.5 174q0 119-6 172t-32 88q-43 59-55.5 84.5T43 858q2 59 94 90 141 45 207 64 86 25 132-12t46-126V461q0-121 6-174t33-88zm-256 909q-96 0-163.5 62.5T74 1321t67.5 149.5T305 1532t165-61.5 69-149.5-69-150.5-165-62.5zm715-96q86 25 132-12t46-126V88q0-303-80-422T831-461q-195-6-286.5 97.5T502-158q25 51 84 65.5t114.5-17T764-209q10-78 31.5-111.5T860-352q76 4 76 98 0 72-27.5 124T852-8.5 823 174v287q0 119-6 172t-33 88q-68 94-65 137 6 61 94 90 141 46 207 64zm-37 96q-96 0-164.5 62.5T750 1321t68.5 149.5T983 1532t163.5-61.5T1214 1321t-67.5-150.5T983 1108z" glyph-name="ij" horiz-adv-x="1275" unicode="ĳ"/><glyph d="M1184 1370q2-27-10.5-51.5T1118 1235q-27-37-33-90t-6-172V616q0-332-115.5-483T573-18q-137 0-243.5 34.5t-163.5 89-85 117T64.5 343t54.5 97q53 51 132 44t126-78q18-29 37.5-94.5t47-103.5 81.5-42q90-8 119.5 79T692 575v480q-4 139-39 180-86 92-82 135 8 63 97 64h422q92-1 94-64zm-25 248q25-31 11.5-52.5T1120 1544h-18q-61 0-289 139-225-139-289-139h-18q-37 0-50.5 21.5T467 1618q113 127 213 231 31 31 47 40t47 9h78q31 0 47-9t47-40q100-104 213-231z" glyph-name="Jcircumflex" horiz-adv-x="1247" unicode="Ĵ"/><glyph d="M350 1012q86 25 132-12t46-126V88q0-303-79.5-422T162-461q-195-6-287 97.5T-168-158q25 51 84 65.5t114.5-17T94-209q10-78 31.5-111.5T190-352q76 4 76 98 0 57-17.5 104.5t-39 77-38.5 94T154 174v287q0 119-6.5 172T115 721q-68 94-66 137 6 61 94 90 141 46 207 64zm156 196q25-31 11.5-52t-50.5-21h-18q-63 0-289 139-225-139-289-139h-18q-37 0-50.5 21.5t11.5 51.5q113 127 213 232 31 31 47 40t47 9h78q31 0 47-9.5t47-39.5q100-105 213-232z" glyph-name="jcircumflex" horiz-adv-x="589" unicode="ĵ"/><glyph d="M1266 461q61-104 139-186t112.5-124 28.5-90q-10-61-96-61H995Q893 0 887 61q-6 37 8 72t25.5 59.5-8 93T829 461L707 664 557 502v-41q0-121 6-174.5t33-87.5q43-59 55.5-85T662 61q-2-61-95-61H160Q70 0 63 61q-2 43 66 138 27 37 34 91t7 171v512q0 115-7 170t-34 92q-41 57-54.5 82.5T63 1370q6 63 97 64h407q92 0 95-64 2-27-10.5-51.5T596 1235q-27-37-33-90t-6-172V774l332 371q70 78 88 113.5t3 67.5-15 44q-2 33 22.5 48.5t73.5 15.5h268q47 0 65.5-15.5t10.5-48.5q-8-27-28.5-45t-50.5-34.5-91-68-131-128.5L973 952zM782-86q74 0 122-50t48-130q0-102-43-197.5T791-614q-51-37-85-10.5t7 81.5q43 61 53 127-70 6-111 51.5T614-252q0 74 46 120t122 46z" glyph-name="Kcommaaccent" horiz-adv-x="1548" unicode="Ķ"/><glyph d="M1208 197q41-37 57.5-54.5t28-38T1305 61q-2-61-95-61H842q-76 0-110 16.5T705 80q4 27 30.5 63.5T745 215q-20 41-102 172l-55 86-66-61q0-160 39-213 68-94 66-138-2-61-95-61H137Q45 0 43 61q-2 43 66 138 27 35 32.5 88t5.5 174v428q0 121-6 174t-32 88q-68 94-66 137 2 59 94 90 33 10 115 35t92 29q86 25 132-13t46-126V625l127 125q49 49 63.5 79.5T720 897t-7 49q4 57 88 58h280q82 0 82-58 0-43-43-70.5T991 809t-147-92l-4-6 170-250q18-27 49-70t46-64.5 35.5-49 36-47T1208 197zM672-86q74 0 122-50t48-130q0-102-43-197.5T680-614q-51-37-85-10.5t7 81.5q43 61 53 127-70 6-110.5 51.5T504-252q0 74 46 120t122 46z" glyph-name="kcommaaccent" horiz-adv-x="1286" unicode="ķ"/><glyph d="M1208 197q41-37 57.5-54.5t28-38T1305 61q-2-61-95-61H842q-76 0-110 16.5T705 80q4 27 30.5 63.5T745 215q-20 41-102 172l-55 86-66-61q0-160 39-213 68-94 66-138-2-61-95-61H137Q45 0 43 61q-2 43 66 138 27 35 32.5 88t5.5 174v18q0 115-6 160t-32 82q-68 94-66 137 2 59 94 90 33 10 115 35t92 29q86 25 132-13t46-127V625l127 125q49 49 63.5 79.5T720 897t-7 49q4 57 88 58h280q82 0 82-58 0-43-43-70.5T991 809t-147-92l-4-6 170-250q18-27 49-70t46-64.5 35.5-49 36-47T1208 197z" glyph-name="kgreenlandic" horiz-adv-x="1286" unicode="ĸ"/><glyph d="M1180 506q39 0 61.5-25.5t14-73-27-148.5-24.5-142q-10-66-40.5-91.5T1069 0H158Q66 0 63 61q-2 27 10.5 52.5T129 199q27 35 33 88t6 174v512q0 119-6 172t-33 90q-43 59-55.5 83.5T63 1370q2 63 95 64h407q90 0 97-64 2-27-11.5-52.5T596 1235q-27-37-33-90t-6-172V461q0-168 37-218t147-50h25q162 0 231 139 2 2 12.5 22.5T1023 379t13.5 22.5T1052 426t16 20.5 18.5 20.5 19.5 15.5 22.5 13.5 24 7 27.5 3zM590 1745q31-61 1-120.5T481 1548q-84-20-258-32-45-8-75.5-5.5T104 1544q-4 8-5 15.5t-1 12.5 4 11 7.5 11 11.5 12.5 12 11.5 15.5 13 17.5 16q125 106 205 161 70 41 131 23t88-86z" glyph-name="Lacute" horiz-adv-x="1277" unicode="Ĺ"/><glyph d="M561 199q43-59 55.5-85T627 61q-2-61-95-61H139Q49 0 43 61q-2 43 66 138 27 35 32.5 88t5.5 174v428q0 121-6 174t-32 88q-68 94-66 137 6 61 96 90 33 10 114 35t91 29q86 25 132-13t46-126V461q0-121 6-174t33-88zm8 1546q31-61 1.5-120.5T461 1548q-84-20-258-32-45-8-76-5.5T84 1544q-4 8-5 15.5t-1 12.5 4 11 7 11 11.5 12.5T113 1618t15 13 17 16q125 106 205 161 70 41 131 23t88-86z" glyph-name="lacute" unicode="ĺ"/><glyph d="M1180 506q39 0 61.5-25.5t14-73-27-148.5-24.5-142q-10-66-40.5-91.5T1069 0H158Q66 0 63 61q-2 27 10.5 52.5T129 199q27 35 33 88t6 174v512q0 119-6 172t-33 90q-43 59-55.5 83.5T63 1370q2 63 95 64h407q90 0 97-64 2-27-11.5-52.5T596 1235q-27-37-33-90t-6-172V461q0-168 37-218t147-50h25q162 0 231 139 2 2 12.5 22.5T1023 379t13.5 22.5T1052 426t16 20.5 18.5 20.5 19.5 15.5 22.5 13.5 24 7 27.5 3zM657-86q74 0 122-50t48-130q0-102-43-197.5T666-614q-51-37-85-10.5t7 81.5q43 61 53 127-70 6-111 51.5T489-252q0 74 46 120t122 46z" glyph-name="Lcommaaccent" horiz-adv-x="1277" unicode="Ļ"/><glyph d="M561 199q43-59 55.5-85T627 61q-2-61-95-61H139Q49 0 43 61q-2 43 66 138 27 35 32.5 88t5.5 174v428q0 121-6 174t-32 88q-68 94-66 137 6 61 96 90 33 10 114 35t91 29q86 25 132-13t46-126V461q0-121 6-174t33-88zM334-86q74 0 122-50t48-130q0-102-43-197.5T342-614q-51-37-85-10.5t7 81.5q43 61 53 127-70 6-110.5 51.5T166-252q0 74 46 120t122 46z" glyph-name="lcommaaccent" unicode="ļ"/><glyph d="M1180 506q39 0 61.5-25.5t14-73-27-148.5-24.5-142q-10-66-40.5-91.5T1069 0H158Q66 0 63 61q-2 27 10.5 52.5T129 199q27 35 33 88t6 174v512q0 119-6 172t-33 90q-43 59-55.5 83.5T63 1370q2 63 95 64h407q90 0 97-64 2-27-11.5-52.5T596 1235q-27-37-33-90t-6-172V461q0-168 37-218t147-50h25q162 0 231 139 2 2 12.5 22.5T1023 379t13.5 22.5T1052 426t16 20.5 18.5 20.5 19.5 15.5 22.5 13.5 24 7 27.5 3zm-181 944q82 0 135.5-56.5T1188 1247q0-113-49-218t-133-169q-57-43-94.5-12t8.5 92q47 61 61 141-76 6-123 56.5T811 1266q0 82 52 133t136 51z" glyph-name="Lcaron" horiz-adv-x="1277" unicode="Ľ"/><glyph d="M561 199q43-59 55.5-85T627 61q-2-61-95-61H139Q49 0 43 61q-2 43 66 138 27 35 32.5 88t5.5 174v428q0 121-6 174t-32 88q-68 94-66 137 6 61 96 90 33 10 114 35t91 29q86 25 132-13t46-126V461q0-121 6-174t33-88zm268 1251q82 0 135.5-56.5T1018 1247q0-113-49-218T836 860q-57-43-94-12t8 92q47 61 61 141-76 6-123 56.5T641 1266q0 82 52 133t136 51z" glyph-name="lcaron" horiz-adv-x="976" unicode="ľ"/><glyph d="M915 950q84 0 137.5-52t53.5-132q0-82-53.5-134T915 580t-136 52-52 134q0 80 52 132t136 52zm265-444q39 0 61.5-25.5t14-73-27-148.5-24.5-142q-10-66-40.5-91.5T1069 0H158Q66 0 63 61q-2 27 10.5 52.5T129 199q27 35 33 88t6 174v512q0 119-6 172t-33 90q-43 59-55.5 83.5T63 1370q2 63 95 64h407q90 0 97-64 2-27-11.5-52.5T596 1235q-27-37-33-90t-6-172V461q0-168 37-218t147-50h25q162 0 231 139 2 2 12.5 22.5T1023 379t13.5 22.5T1052 426t16 20.5 18.5 20.5 19.5 15.5 22.5 13.5 24 7 27.5 3z" glyph-name="Ldot" horiz-adv-x="1277" unicode="Ŀ"/><glyph d="M813 950q84 0 137.5-52t53.5-132q0-82-53.5-134T813 580t-136 52-52 134q0 80 52 132t136 52zM561 199q43-59 55.5-85T627 61q-2-61-95-61H139Q49 0 43 61q-2 43 66 138 27 35 32.5 88t5.5 174v428q0 121-6 174t-32 88q-68 94-66 137 6 61 96 90 33 10 114 35t91 29q86 25 132-13t46-126V461q0-121 6-174t33-88z" glyph-name="ldot" horiz-adv-x="1044" unicode="ŀ"/><glyph d="M1178 506q41 0 62.5-25.5T1253 408q-8-49-25.5-150.5T1204 117q-10-66-40.5-91.5T1067 0H158Q66 0 63 61q-2 27 10.5 52.5T129 199q37 53 39 209-6-2-15.5-6.5T141 397q-35-14-57.5 6.5T61 463q0 80 97 119 2 0 5 2t5 2v387q0 119-6 172t-33 90q-43 59-55.5 83.5T63 1370q2 63 95 64h407q90 0 97-64 2-27-11.5-51.5T594 1235q-27-37-33-90t-6-172V741q68 29 164 69t112 46q45 18 67-2t22-61q0-82-82-113-4-2-105.5-43T555 565V461q0-168 38-218t148-50h25q158 0 231 139 59 111 95 141 39 33 86 33z" glyph-name="Lslash" horiz-adv-x="1275" unicode="Ł"/><glyph d="M618 737q-78-47-98-59V461q0-121 6-174.5t33-87.5q43-59 55.5-85T625 61q-2-61-95-61H137Q47 0 41 61q-2 43 65 138 27 35 33 87t6 169q-16-10-36.5-22.5t-33-19.5T57 401q-33-18-60.5 1.5T-31 463q0 39 19.5 62.5T61 580q51 31 84 51v258q0 121-6 174t-33 88q-68 94-65 137 6 61 96 90 125 43 205 64 86 25 132-13t46-126V856q55 33 92 55 41 25 64.5 2.5T700 850q0-68-82-113z" glyph-name="lslash" unicode="ł"/><glyph d="M1511 1370q2-27-11-52.5t-54-82.5q-27-37-34-92.5t-7-169.5V113q0-49-24.5-81T1309 0h-146q-78 0-114.5 18.5T971 104q-109 180-609 992V461q0-117 7.5-171t33.5-91q43-59 55.5-85T469 61q-2-61-94-61H158Q66 0 63 61q-2 27 10.5 52.5T129 199q27 37 34 91t7 171v512h-2q0 119-6 172t-33 90q-43 59-55.5 83.5T63 1370q2 61 93 64h344q74 0 103.5-17.5T670 1337q27-43 542-897v533q0 115-7 170t-34 92q-43 59-55 83.5t-10 51.5q2 63 94 64h217q92-1 94-64zm-385 375q31-61 1.5-120.5T1018 1548q-84-20-258-32-45-8-76-5.5t-43 33.5q-4 8-5 15.5t-1 12.5 4 11 7 11 11.5 12.5T670 1618t15 13 17 16q125 106 205 161 70 41 131 23t88-86z" glyph-name="Nacute" horiz-adv-x="1574" unicode="Ń"/><glyph d="M1219 199q70-96 67-138-6-61-96-61H797q-90 0-97 61-2 41 68 138 27 35 33 88t6 174v20q0 59-1 89t-8 83.5-21.5 80-43 48T662 803q-139 0-140-197V461q0-121 6.5-174.5T561 199q43-59 55.5-85T627 61q-2-61-95-61H139Q49 0 43 61q-2 43 66 138 27 37 34 90t7 166q0 209-41 266-68 94-66 137 6 61 96 90 125 43 205 64 168 45 178-123 131 131 297 131 184 0 272.5-100.5T1180 682V461q0-121 6-174t33-88zM938 1335q31-61 1-120.5T829 1139q-84-20-258-33-45-8-75.5-5t-42.5 34q-4 8-5.5 15t-1.5 12 4.5 11.5 7.5 11.5 11 12 12 11 15.5 13.5T514 1237q125 106 205 162 70 41 131 22.5t88-86.5z" glyph-name="nacute" horiz-adv-x="1308" unicode="ń"/><glyph d="M1511 1370q2-27-11-52.5t-54-82.5q-27-37-34-92.5t-7-169.5V113q0-49-24.5-81T1309 0h-146q-78 0-114.5 18.5T971 104q-109 180-609 992V461q0-117 7.5-171t33.5-91q43-59 55.5-85T469 61q-2-61-94-61H158Q66 0 63 61q-2 27 10.5 52.5T129 199q27 37 34 91t7 171v512h-2q0 119-6 172t-33 90q-43 59-55.5 83.5T63 1370q2 61 93 64h344q74 0 103.5-17.5T670 1337q27-43 542-897v533q0 115-7 170t-34 92q-43 59-55 83.5t-10 51.5q2 63 94 64h217q92-1 94-64zM786-86q74 0 122-50t48-130q0-102-43-197.5T795-614q-51-37-85-10.5t7 81.5q43 61 53 127-70 6-111 51.5T618-252q0 74 46 120t122 46z" glyph-name="Ncommaaccent" horiz-adv-x="1574" unicode="Ņ"/><glyph d="M1219 199q70-96 67-138-6-61-96-61H797q-90 0-97 61-2 41 68 138 27 35 33 88t6 174v20q0 59-1 89t-8 83.5-21.5 80-43 48T662 803q-139 0-140-197V461q0-121 6.5-174.5T561 199q43-59 55.5-85T627 61q-2-61-95-61H139Q49 0 43 61q-2 43 66 138 27 37 34 90t7 166q0 209-41 266-68 94-66 137 6 61 96 90 125 43 205 64 168 45 178-123 131 131 297 131 184 0 272.5-100.5T1180 682V461q0-121 6-174t33-88zM664-86q74 0 122-50t48-130q0-102-43-197.5T672-614q-51-37-85-10.5t7 81.5q43 61 53 127-70 6-110.5 51.5T496-252q0 74 46 120t122 46z" glyph-name="ncommaaccent" horiz-adv-x="1308" unicode="ņ"/><glyph d="M1511 1370q2-27-11-52.5t-54-82.5q-27-37-34-92.5t-7-169.5V113q0-49-24.5-81T1309 0h-146q-78 0-114.5 18.5T971 104q-109 180-609 992V461q0-117 7.5-171t33.5-91q43-59 55.5-85T469 61q-2-61-94-61H158Q66 0 63 61q-2 27 10.5 52.5T129 199q27 37 34 91t7 171v512h-2q0 119-6 172t-33 90q-43 59-55.5 83.5T63 1370q2 61 93 64h344q74 0 103.5-17.5T670 1337q27-43 542-897v533q0 115-7 170t-34 92q-43 59-55 83.5t-10 51.5q2 63 94 64h217q92-1 94-64zm-356 528q35 0 49.5-21.5T1194 1823q-61-70-213-230-31-31-47-40t-49-9h-76q-33 0-49.5 9.5T715 1593q-111 113-215 230-25 33-10.5 54t51.5 21h18q47 0 289-139 231 139 289 139h18z" glyph-name="Ncaron" horiz-adv-x="1574" unicode="Ň"/><glyph d="M1219 199q70-96 67-138-6-61-96-61H797q-90 0-97 61-2 41 68 138 27 35 33 88t6 174v20q0 59-1 89t-8 83.5-21.5 80-43 48T662 803q-139 0-140-197V461q0-121 6.5-174.5T561 199q43-59 55.5-85T627 61q-2-61-95-61H139Q49 0 43 61q-2 43 66 138 27 37 34 90t7 166q0 209-41 266-68 94-66 137 6 61 96 90 125 43 205 64 168 45 178-123 131 131 297 131 184 0 272.5-100.5T1180 682V461q0-121 6-174t33-88zM971 1448q35 0 49-21.5t-10-54.5q-61-70-213-229-31-31-47.5-40t-49.5-9h-75q-33 0-49.5 9t-45.5 40q-111 113-215 229-25 33-10.5 54.5T356 1448h19q47 0 289-139 231 139 288 139h19z" glyph-name="ncaron" horiz-adv-x="1308" unicode="ň"/><glyph d="M1581 199q70-96 68-138-6-61-97-61h-393q-90 0-96 61-2 41 67 138 27 35 33 88t6 174v20q0 59-1 89t-8 83.5-21.5 80-43 48T1024 803q-139 0-139-197V461q0-121 6-174.5t33-87.5q43-59 55-85t10-53q-2-61-94-61H502q-90 0-96 61-2 43 65 138 27 37 34 90t7 166q0 209-41 266-68 94-65 137 6 61 96 90 127 43 205 64 168 45 178-123 131 131 297 131 184 0 272-100.5t88-237.5V461q0-121 6-174t33-88zM147 1020q74 0 122-50t48-130q0-102-43-197.5T156 492q-51-37-85-10.5t7 81.5q43 61 53 127-70 6-110.5 51T-20 854q0 74 45.5 120t121.5 46z" glyph-name="napostrophe" horiz-adv-x="1671" unicode="ŉ"/><glyph d="M1511 1370q2-27-11-52.5t-54-82.5q-27-37-34-92.5t-7-169.5V150q0-164-40-287t-107.5-190.5T1115-428t-157-33q-131 0-216 74t-46 184q29 78 106 98.5T948-139q190-156 244 139h-31q-76 0-112.5 18.5T971 104q-109 180-609 992V461q0-117 7.5-171t33.5-91q68-94 66-138-2-61-94-61H158Q66 0 63 61q-2 27 10.5 52.5T129 199q27 37 34 91t7 171v512h-2q0 119-6 172t-33 90q-43 59-55.5 83.5T63 1370q2 61 93 64h342q74 0 104.5-17.5T670 1337q27-43 542-897v533q0 115-7 170t-34 92q-43 59-55 83.5t-10 51.5q2 63 94 64h217q92-1 94-64z" glyph-name="Eng" horiz-adv-x="1574" unicode="Ŋ"/><glyph d="M819 1020q184 0 271.5-100.5T1178 682V90q0-291-82-417T811-461q-193-6-285 97.5T483-158q25 51 84.5 66.5t113.5-16T743-209q10-78 33-110.5t66-32.5q76 4 76 100 0 57-17.5 101.5t-39 72-39 93T805 174v307q0 61-1 91t-8.5 82.5-21.5 79-43 48-72 21.5q-139 0-139-197V461q0-121 7.5-174.5T561 199q68-94 66-138-6-61-97-61H137Q45 0 43 61q-2 27 10.5 52.5T109 199q27 35 32.5 87t5.5 169q0 119-7 175t-31 91q-43 61-55.5 85.5T43 858q2 59 94 90 162 53 207 64 82 23 127-10t49-113q131 131 299 131z" glyph-name="eng" horiz-adv-x="1280" unicode="ŋ"/><glyph d="M784.5 1450q327.5 0 535.5-200.5T1528 717t-208-533.5T784.5-18 249 183.5 41 717t208 532.5T784.5 1450zm0-1284Q926 166 1008 317.5t82 399.5-82 398.5T784.5 1266 561 1115.5 479 717t82-399.5T784.5 166zM1061 1769q33 0 56.5-22.5t23.5-56.5v-33q0-35-23.5-57.5T1061 1577H506q-33 0-56.5 23.5T426 1657v33q0 33 23.5 56t56.5 23h555z" glyph-name="Omacron" horiz-adv-x="1568" unicode="Ō"/><glyph d="M580 1020q256 0 406.5-139.5t150.5-379T986.5 122 580-18 172 122 20 501.5t152 379T580 1020zm0-844q84 0 130 90t46 235.5T710 736t-130 89q-86 0-132.5-89T401 501.5 447.5 266 580 176zm276 1163q33 0 56.5-22.5T936 1260v-33q0-35-23.5-57.5T856 1147H301q-33 0-56.5 23.5T221 1227v33q0 33 23.5 56t56.5 23h555z" glyph-name="omacron" horiz-adv-x="1177" unicode="ō"/><glyph d="M784.5 1450q327.5 0 535.5-200.5T1528 717t-208-533.5T784.5-18 249 183.5 41 717t208 532.5T784.5 1450zm0-1284Q926 166 1008 317.5t82 399.5-82 398.5T784.5 1266 561 1115.5 479 717t82-399.5T784.5 166zM1014 1839q53 0 45-65-10-84-98-152-76-61-177-61-147 0-233 118-59 80-39 133 12 27 43 27 16 0 44-18.5t75-36 110-17.5q84 0 151 36t79 36z" glyph-name="Obreve" horiz-adv-x="1568" unicode="Ŏ"/><glyph d="M580 1020q256 0 406.5-139.5t150.5-379T986.5 122 580-18 172 122 20 501.5t152 379T580 1020zm0-844q84 0 130 90t46 235.5T710 736t-130 89q-86 0-132.5-89T401 501.5 447.5 266 580 176zm229 1213q53 0 45-66-10-84-98-152-76-61-176-61-147 0-234 119-59 80-39 133 12 27 43 27 16 0 44-18.5t75-36 111-17.5q84 0 150.5 36t78.5 36z" glyph-name="obreve" horiz-adv-x="1177" unicode="ŏ"/><glyph d="M784.5 1450q327.5 0 535.5-200.5T1528 717t-208-533.5T784.5-18 249 183.5 41 717t208 532.5T784.5 1450zm0-1284Q926 166 1008 317.5t82 399.5-82 398.5T784.5 1266 561 1115.5 479 717t82-399.5T784.5 166zM815 1974q59-41 65.5-104.5T831 1747q-51-51-200-166-63-51-84-51-14-2-31 10-8 4-12 10t-7 11.5-4 13.5-1 13 3 15.5 5 16.5 6 20.5 6 22.5q55 180 86 246 33 72 97.5 89t119.5-24zm387 0q59-41 65.5-104.5T1217 1747q-51-51-199-166-4-4-14.5-12t-14.5-11.5-12-8.5-12-8-11.5-6-11.5-4-9-2-10 1-10.5 4-11.5 6q-33 25-6 109 2 10 4 14 49 162 84 246 33 72 98.5 89t120.5-24z" glyph-name="Ohungarumlaut" horiz-adv-x="1568" unicode="Ő"/><glyph d="M580 1020q256 0 406.5-139.5t150.5-379T986.5 122 580-18 172 122 20 501.5t152 379T580 1020zm0-844q84 0 130 90t46 235.5T710 736t-130 89q-86 0-132.5-89T401 501.5 447.5 266 580 176zm30 1368q59-41 65.5-104.5T627 1317q-51-51-201-166-63-51-84-51-14-2-31 10-8 4-12 10t-7 11.5-4 13.5-1 13 3 15.5 5 16.5 6 20.5 6 22.5q55 180 86 246 33 72 97.5 89t119.5-24zm387 0q59-41 65.5-104.5T1012 1317q-51-51-199-166-4-4-14.5-12.5T784 1127t-12-8-12-8-11.5-6-11.5-4-9-2-10 1-10.5 4-11.5 6q-33 25-6 109 2 10 4 14 49 162 84 246 33 72 98.5 89t120.5-24z" glyph-name="ohungarumlaut" horiz-adv-x="1177" unicode="ő"/><glyph d="M1962 506q41 0 62.5-25.5t13.5-73-26.5-148.5-24.5-142q-10-66-40-91.5T1851 0H850Q483 0 262 197.5t-221 519T262 1236t588 198h958q66 0 96.5-27t41.5-92q4-25 22.5-132.5T1995 1024q8-45-13.5-71.5T1919 926q-14 0-28.5 3t-28 11-22.5 14.5-21.5 20.5-18.5 21.5-17 26.5-15.5 25.5-15.5 28-13 25.5q-76 137-228 137-102-2-137-52t-35-214V827q117 6 148 35 20 16 40.5 43t35 38 34.5 11q25 0 37.5-18t14.5-38.5 2-61.5V625q0-31-1-46.5t-5.5-35T1628 516t-31-8q-20 0-34.5 11t-35 38-40.5 43q-35 29-148 33V461q0-168 37-218t148-50h26q158 0 232 139 23 43 33 61.5t34.5 51 52 47T1962 506zM952 416v602q0 129-27.5 175T817 1239h-10q-141 0-231.5-148.5T485 717t90.5-373.5T807 195h10q80 0 107.5 47T952 416z" glyph-name="OE" horiz-adv-x="2080" unicode="Œ"/><glyph d="M1694 303q43 43 74.5 18.5t7.5-81.5q-53-115-163-186.5T1333-18q-219 0-377 116Q811-19 580-18q-256 0-408 140T20 501.5t152 379T580 1020q223 0 370-109 150 115 371 109 209-6 327.5-124T1782 635q10-106-17.5-148.5T1640 444h-505q25-125 128-187t225-48 206 94zm-557 365q-4-16 3-29.5t19-13.5h240q80 0 57 96-35 143-166 135-114-10-153-188zM580 176q84 0 130 90t46 235.5T710 736t-130 89q-86 0-132.5-89T401 501.5 447.5 266 580 176z" glyph-name="oe" horiz-adv-x="1826" unicode="œ"/><glyph d="M1223 461q61-104 138-186t111.5-124 28.5-90q-6-61-94-61H952Q850 0 844 61q-6 37 8 72t25.5 59.5-8 93T786 461l-43 71H557v-71q0-121 6-174.5t33-87.5q43-59 55.5-85T662 61q-2-61-95-61H160Q70 0 63 61q-2 43 66 138 27 37 34 91t7 171v512q0 115-7 170t-34 92q-41 57-54.5 82.5T63 1370q6 63 97 64h643q281 0 416-127t135-324q0-113-58.5-211T1133 612zM682 725q104 0 168.5 68.5T915 983q0 119-64.5 187.5T682 1239h-23q-66 0-84-31.5T557 1092V872q0-84 18.5-115.5T659 725h23zm295 1020q31-61 1-120.5T868 1548q-84-20-258-32-45-8-75.5-5.5T492 1544q-4 8-5.5 15.5T485 1572t4.5 11 7.5 11 11 12.5 12 11.5 15.5 13 17.5 16q125 106 205 161 70 41 131 23t88-86z" glyph-name="Racute" horiz-adv-x="1503" unicode="Ŕ"/><glyph d="M764 1020q104 0 172-52.5t76-125T983 692q-43-76-133-84t-150 68q-16 23-30.5 52.5t-20.5 47-21.5 29.5-39.5 12q-37 0-50.5-25.5T522 713V461q0-123 7.5-178.5T561 199q88-90 80-138-10-61-94-61H139Q49 0 43 61q-2 43 66 138 27 35 32.5 87t5.5 169q0 119-7 175t-31 91q-68 94-66 137 6 61 96 90 125 43 205 64 154 43 174-99 99 107 246 107zm-2 315q31-61 1-120.5T653 1139q-84-20-258-33-45-8-75.5-5t-43.5 34q-4 8-5 15t-1 12 4.5 11.5 7.5 11.5 11 12 12 11 15.5 13.5T338 1237q125 106 205 162 70 41 131 22.5t88-86.5z" glyph-name="racute" horiz-adv-x="1036" unicode="ŕ"/><glyph d="M1223 461q61-104 138-186t111.5-124 28.5-90q-6-61-94-61H952Q850 0 844 61q-6 37 8 72t25.5 59.5-8 93T786 461l-43 71H557v-71q0-121 6-174.5t33-87.5q43-59 55.5-85T662 61q-2-61-95-61H160Q70 0 63 61q-2 43 66 138 27 37 34 91t7 171v512q0 115-7 170t-34 92q-41 57-54.5 82.5T63 1370q6 63 97 64h643q281 0 416-127t135-324q0-113-58.5-211T1133 612zM682 725q104 0 168.5 68.5T915 983q0 119-64.5 187.5T682 1239h-23q-66 0-84-31.5T557 1092V872q0-84 18.5-115.5T659 725h23zm78-811q74 0 122-50t48-130q0-102-43-197.5T768-614q-51-37-85-10.5t7 81.5q43 61 53 127-70 6-110.5 51.5T592-252q0 74 46 120t122 46z" glyph-name="Rcommaaccent" horiz-adv-x="1503" unicode="Ŗ"/><glyph d="M764 1020q104 0 172-52.5t76-125T983 692q-43-76-133-84t-150 68q-16 23-30.5 52.5t-20.5 47-21.5 29.5-39.5 12q-37 0-50.5-25.5T522 713V461q0-123 7.5-178.5T561 199q88-90 80-138-10-61-94-61H139Q49 0 43 61q-2 43 66 138 27 35 32.5 87t5.5 169q0 119-7 175t-31 91q-68 94-66 137 6 61 96 90 125 43 205 64 154 43 174-99 99 107 246 107zM322-86q74 0 122-50t48-130q0-102-43-197.5T330-614q-51-37-85-10.5t7 81.5q43 61 53 127-70 6-110.5 51.5T154-252q0 74 46 120t122 46z" glyph-name="rcommaaccent" horiz-adv-x="1036" unicode="ŗ"/><glyph d="M1223 461q61-104 138-186t111.5-124 28.5-90q-6-61-94-61H952Q850 0 844 61q-6 37 8 72t25.5 59.5-8 93T786 461l-43 71H557v-71q0-121 6-174.5t33-87.5q43-59 55.5-85T662 61q-2-61-95-61H160Q70 0 63 61q-2 43 66 138 27 37 34 91t7 171v512q0 115-7 170t-34 92q-41 57-54.5 82.5T63 1370q6 63 97 64h643q281 0 416-127t135-324q0-113-58.5-211T1133 612zM682 725q104 0 168.5 68.5T915 983q0 119-64.5 187.5T682 1239h-23q-66 0-84-31.5T557 1092V872q0-84 18.5-115.5T659 725h23zm346 1173q35 0 49.5-21.5T1067 1823q-61-70-213-230-31-31-47-40t-49-9h-76q-33 0-49.5 9.5T588 1593q-111 113-215 230-25 33-10.5 54t51.5 21h18q47 0 289-139 231 139 289 139h18z" glyph-name="Rcaron" horiz-adv-x="1503" unicode="Ř"/><glyph d="M764 1020q104 0 172-52.5t76-125T983 692q-43-76-133-84t-150 68q-16 23-30.5 52.5t-20.5 47-21.5 29.5-39.5 12q-37 0-50.5-25.5T522 713V461q0-123 7.5-178.5T561 199q88-90 80-138-10-61-94-61H139Q49 0 43 61q-2 43 66 138 27 35 32.5 87t5.5 169q0 119-7 175t-31 91q-68 94-66 137 6 61 96 90 125 43 205 64 154 43 174-99 99 107 246 107zm72 469q35 0 49-21.5t-11-54.5q-61-70-212-229-31-31-47.5-40t-49.5-9h-76q-33 0-49 9t-45 40q-111 113-215 229-25 33-10.5 54.5T221 1489h19q47 0 288-139 231 139 289 139h19z" glyph-name="rcaron" horiz-adv-x="1036" unicode="ř"/><glyph d="M807 858q276-125 380.5-228.5T1270 354q-27-203-177.5-287.5T682-18q-141 0-265 34.5t-201 88-128 118-46 125T84 455q35 37 91 50t111.5-8.5T371 420q4-10 19.5-43t24.5-48.5 27.5-44 38-44 47-33T593 180t83-12q166-12 186 100 20 111-135 193-25 12-115 54t-144 69.5-135 84T207 778t-74 133-18 168q47 397 583 371 219-12 366.5-101t162-186.5T1180 991q-55-51-140.5-43T905 1028q-14 20-42.5 93T791 1229t-129 37q-84 0-129.5-41T496 1112q8-70 77.5-125T807 858zm108 887q31-61 1.5-120.5T807 1548q-84-20-258-32-45-8-76-5.5t-43 33.5q-4 8-5 15.5t-1 12.5 4 11 7 11 11.5 12.5T459 1618t15 13 18 16q125 106 204 161 70 41 131 23t88-86z" glyph-name="Sacute" horiz-adv-x="1316" unicode="Ś"/><glyph d="M608 643q215-86 269-121 141-90 120-243-4-23-10-48-33-127-155.5-188T528-18Q405-18 304 7.5T142.5 75 49 167 20.5 267 61 358q45 53 119 40t101-93q20-63 58-99t65.5-44 82.5-17q154-20 172 58 6 23-4 40t-39.5 33.5T558 304t-80 30.5-89 36.5q-41 18-67.5 31.5t-68.5 38-68.5 48T131 548t-38 73.5-11 88T100 815q76 225 455 205 94-6 171-32.5T846 922t65.5-84 17.5-90.5-34-79.5q-33-43-104.5-38T686 692q-6 10-26.5 65.5t-49 77T522 860q-111 12-125-61-8-39 40-73t171-83zm176 692q31-61 1.5-120.5T676 1139q-84-20-258-33-45-8-76-5t-43 34q-4 8-5 15t-1 12 4 11.5 7 11.5 11.5 12 12.5 11 15 13.5 17 15.5q125 106 205 162 70 41 131 22.5t88-86.5z" glyph-name="sacute" horiz-adv-x="1040" unicode="ś"/><glyph d="M807 858q276-125 380.5-228.5T1270 354q-27-203-177.5-287.5T682-18q-141 0-265 34.5t-201 88-128 118-46 125T84 455q35 37 91 50t111.5-8.5T371 420q4-10 19.5-43t24.5-48.5 27.5-44 38-44 47-33T593 180t83-12q166-12 186 100 20 111-135 193-25 12-115 54t-144 69.5-135 84T207 778t-74 133-18 168q47 397 583 371 219-12 366.5-101t162-186.5T1180 991q-55-51-140.5-43T905 1028q-14 20-42.5 93T791 1229t-129 37q-84 0-129.5-41T496 1112q8-70 77.5-125T807 858zm217 760q25-31 11.5-52.5T985 1544h-18q-61 0-289 139-225-139-289-139h-18q-37 0-50.5 21.5T332 1618q113 127 213 231 31 31 47 40t47 9h78q31 0 47-9t47-40q100-104 213-231z" glyph-name="Scircumflex" horiz-adv-x="1316" unicode="Ŝ"/><glyph d="M608 643q215-86 269-121 141-90 120-243-4-23-10-48-33-127-155.5-188T528-18Q405-18 304 7.5T142.5 75 49 167 20.5 267 61 358q45 53 119 40t101-93q20-63 58-99t65.5-44 82.5-17q154-20 172 58 6 23-4 40t-39.5 33.5T558 304t-80 30.5-89 36.5q-41 18-67.5 31.5t-68.5 38-68.5 48T131 548t-38 73.5-11 88T100 815q76 225 455 205 94-6 171-32.5T846 922t65.5-84 17.5-90.5-34-79.5q-33-43-104.5-38T686 692q-6 10-26.5 65.5t-49 77T522 860q-111 12-125-61-8-39 40-73t171-83zm248 524q25-31 11.5-52t-50.5-21h-18q-61 0-289 139-227-139-289-139h-18q-37 0-50.5 21.5T164 1167q113 127 213 232 31 31 47 40t47 9h78q31 0 47-9t47-40q100-105 213-232z" glyph-name="scircumflex" horiz-adv-x="1040" unicode="ŝ"/><glyph d="M807 860q139-63 221-110.5T1175.5 643t86-129 8.5-160q-25-188-160-274T743-14q-2-8-4-22.5t-4-26-4-19.5q129 0 179.5-52T948-274q-12-94-81.5-140.5T707-459q-59 0-114.5 22.5T514-375q-20 23-8 58.5t55 33.5q109-4 119 56 10 63-64 63-51 0-41 33 2 12 12.5 59T600-12Q473-2 364.5 35t-177 90T80 237.5t-38 117T84 455q35 37 91 50t112.5-7.5T373 420q4-8 19.5-42t23.5-48.5 26.5-43 38-44 47-34T593 181t83-13q168-12 188 100 10 57-29.5 108.5T727 461q-23 12-114 54t-144 69.5-135 85-126 111-74 133-19 167.5q27 219 181.5 300t401.5 69q309-14 459-174 104-109 70-213-12-41-47-70-57-51-140.5-44T907 1028q-16 25-37.5 74t-38 79.5T771 1239t-109 27q-82 2-127.5-40T498 1112q8-68 77.5-123T807 860z" glyph-name="Scedilla" horiz-adv-x="1316" unicode="Ş"/><glyph d="M608 643q213-86 269-121 141-90 118-252-4-18-8-39Q928-2 567-16q-2-10-6-33t-6-33q129 0 179-52t38-140q-12-94-81.5-140.5T530-459q-61 0-114.5 22.5T338-375q-20 23-8 58.5t55 33.5q106-4 117 56 14 63-62 63-23 0-35 7t-8 26q4 12 27 121Q324 0 242 29.5T111.5 99t-73 86-18 91.5T61 358q45 53 119 40t101-93q20-63 58-98t66.5-44 81.5-16q152-20 172 56 6 23-4 40t-39.5 33.5T558 305t-81 32.5-88 35.5q-41 18-68.5 31.5t-68.5 38-67.5 48T131 550t-39 74-11 88 19 105q76 223 453 203 96-4 172-30.5T845 924t66.5-84 17.5-90-36-80q-33-45-102.5-40T686 694q-10 16-23.5 51T638 800.5t-41 39-77 22.5q-113 8-123-61-8-41 39-74t172-84z" glyph-name="scedilla" horiz-adv-x="1040" unicode="ş"/><glyph d="M807 858q276-125 380.5-228.5T1270 354q-27-203-177.5-287.5T682-18q-141 0-265 34.5t-201 88-128 118-46 125T84 455q35 37 91 50t111.5-8.5T371 420q4-10 19.5-43t24.5-48.5 27.5-44 38-44 47-33T593 180t83-12q166-12 186 100 20 111-135 193-25 12-115 54t-144 69.5-135 84T207 778t-74 133-18 168q47 397 583 371 219-12 366.5-101t162-186.5T1180 991q-55-51-140.5-43T905 1028q-14 20-42.5 93T791 1229t-129 37q-84 0-129.5-41T496 1112q8-70 77.5-125T807 858zm178 1040q35 0 49.5-21.5T1024 1823q-61-70-213-230-31-31-47-40t-49-9h-76q-33 0-49.5 9.5T545 1593q-111 113-215 230-25 33-10.5 54t51.5 21h18q47 0 289-139 231 139 289 139h18z" glyph-name="Scaron" horiz-adv-x="1316" unicode="Š"/><glyph d="M608 643q215-86 269-121 141-90 120-243-4-23-10-48-33-127-155.5-188T528-18Q405-18 304 7.5T142.5 75 49 167 20.5 267 61 358q45 53 119 40t101-93q20-63 58-99t65.5-44 82.5-17q154-20 172 58 6 23-4 40t-39.5 33.5T558 304t-80 30.5-89 36.5q-41 18-67.5 31.5t-68.5 38-68.5 48T131 548t-38 73.5-11 88T100 815q76 225 455 205 94-6 171-32.5T846 922t65.5-84 17.5-90.5-34-79.5q-33-43-104.5-38T686 692q-6 10-26.5 65.5t-49 77T522 860q-111 12-125-61-8-39 40-73t171-83zm209 825q35 0 49.5-21.5T856 1393q-61-70-213-230-31-31-47-40t-49-9h-76q-33 0-49 9.5t-45 39.5q-111 113-215 230-25 33-10.5 54t51.5 21h18q47 0 289-139 231 139 289 139h18z" glyph-name="scaron" horiz-adv-x="1040" unicode="š"/><glyph d="M1384.5 1026q8.5-47-13-73.5T1309 926q-43 0-82 32.5t-54.5 59-44.5 84.5q-76 137-231 137V461q0-121 7-174.5t34-87.5q68-94 66-138-6-61-97-61H500q-90 0-94 61-2 27 10 52.5t55 85.5q27 35 33 88t6 174v778q-158 0-229-137-2-4-13.5-25.5t-15.5-28-15.5-25.5-17.5-26.5-18.5-21.5-21.5-20.5-22.5-14.5-27.5-11-29-3q-41 0-63.5 26.5T23 1026q29 158 51 289 10 66 40.5 92.5T211 1434h987q66 0 96.5-27t38.5-92q6-41 24.5-141.5t27-147.5zM702-86q74 0 122-50t48-130q0-102-43-197.5T711-614q-51-37-85-10.5t7 81.5q43 61 53 127-70 6-110.5 51.5T535-252q0 74 45.5 120T702-86z" glyph-name="Tcommaaccent" horiz-adv-x="1406" unicode="Ţ"/><glyph d="M780 252q16-27 15.5-60.5T764 121t-72-67.5-102.5-51T463-18q-141 0-237.5 80.5T129 328v497H59q-35 0-57 23.5T-20 905v19q0 33 23.5 56.5T59 1004h41q61 0 93 38.5t39.5 85 33 85T338 1251h82q49 0 65.5-22.5T502 1155v-151h170q33 0 56.5-24t23.5-56v-19q0-33-23.5-56.5T672 825H502V342q0-80 56-104.5T686 256q63 33 94-4zM346-86q74 0 122-50t48-130q0-102-43-197.5T354-614q-51-37-84.5-10.5T276-543q43 61 54 127-70 6-111 51.5T178-252q0 74 46 120t122 46z" glyph-name="tcommaaccent" horiz-adv-x="839" unicode="ţ"/><glyph d="M1384.5 1026q8.5-47-13-73.5T1309 926q-43 0-82 32.5t-54.5 59-44.5 84.5q-76 137-231 137V461q0-121 7-174.5t34-87.5q68-94 66-138-6-61-97-61H500q-90 0-94 61-2 27 10 52.5t55 85.5q27 35 33 88t6 174v778q-158 0-229-137-2-4-13.5-25.5t-15.5-28-15.5-25.5-17.5-26.5-18.5-21.5-21.5-20.5-22.5-14.5-27.5-11-29-3q-41 0-63.5 26.5T23 1026q29 158 51 289 10 66 40.5 92.5T211 1434h987q66 0 96.5-27t38.5-92q6-41 24.5-141.5t27-147.5zM1010 1898q35 0 49-21.5t-10-53.5q-61-70-213-230-31-31-47.5-40t-49.5-9h-75q-33 0-49.5 9.5T569 1593q-111 113-215 230-25 33-10.5 54t51.5 21h19q47 0 288-139 231 139 289 139h19z" glyph-name="Tcaron" horiz-adv-x="1406" unicode="Ť"/><glyph d="M780 252q16-27 15.5-60.5T764 121t-72-67.5-102.5-51T463-18q-141 0-237.5 80.5T129 328v497H59q-35 0-57 23.5T-20 905v19q0 33 23.5 56.5T59 1004h41q61 0 93 38.5t39.5 85 33 85T338 1251h82q49 0 65.5-22.5T502 1155v-151h170q33 0 56.5-24t23.5-56v-19q0-33-23.5-56.5T672 825H502V342q0-80 56-104.5T686 256q63 33 94-4zm125 1198q82 0 135.5-56.5T1094 1247q0-113-49.5-218T911 860q-57-43-94-12t8 92q47 61 62 141-76 6-123 56.5T717 1266q0 82 52 133t136 51z" glyph-name="tcaron" horiz-adv-x="1052" unicode="ť"/><glyph d="M1384 1024q8-45-14-71.5t-61-26.5q-16 0-30.5 3t-28 11-22.5 14.5-21.5 20.5-18.5 21.5-17.5 26.5-15.5 25.5-15.5 29-13.5 24.5q-72 137-229 137V760h176q33 0 56.5-23.5T1153 680v-12q0-33-23.5-56.5T1073 588H897V461q0-121 6-174.5t33-87.5q43-59 55.5-85t9.5-53q-2-61-94-61H500q-90 0-97 61-2 43 66 138 27 35 34 88t7 174v127H334q-33 0-56.5 23.5T254 668v12q0 33 22.5 56.5T334 760h176v479q-156 0-231-137-29-57-44.5-84T180 958.5 98 926q-41 0-62.5 26.5T23 1024q8 49 26.5 151.5T74 1315q10 66 40.5 92.5T209 1434h987q66 0 96.5-27t40.5-92q6-37 24.5-139.5T1384 1024z" glyph-name="Tbar" horiz-adv-x="1406" unicode="Ŧ"/><glyph d="M780 252q16-27 15.5-60.5T765 121t-71-67.5-103.5-51T463-18q-141 0-237.5 80.5T129 328v215H37q-23 0-40 17.5T-20 600v2q0 23 17 40t40 17h92v166H59q-33 0-56 23.5T-20 905v19q0 33 23.5 56.5T59 1004h41q61 0 93 38.5t39.5 85 33 85T338 1251h84q47 0 63.5-22.5T502 1155v-151h170q33 0 56.5-23t23.5-57v-19q0-33-23.5-56.5T672 825H502V659h137q23 0 39-17t16-40v-2q0-23-16-40t-39-17H502V342q0-80 56-104.5T686 256q63 33 94-4z" glyph-name="tbar" horiz-adv-x="839" unicode="ŧ"/><glyph d="M1513 1370q2-27-11-52.5t-54-82.5q-27-37-34-92.5t-7-169.5V616q0-315-147.5-474.5T829-18q-317 0-488 158.5T170 616v357q0 119-6 172t-33 90q-43 59-56.5 83.5T63 1370q6 63 97 64h407q90 0 97-64 2-27-11.5-51.5T596 1235q-27-37-33-90t-6-172V616q0-449 334-448 324 0 323 448v357q0 115-7 170t-33 92q-43 59-55.5 83.5T1108 1370q2 63 94 64h217q88-1 94-64zm-374 395q25 20 48 24.5t37.5-9 12.5-39.5q-8-76-61.5-143.5T1016 1530q-51 0-112.5 22.5t-102.5 43-90 17.5-90-46q-43-43-80-25.5t-21 70.5q29 94 77 149.5t142 55.5q59 0 122-22.5t101.5-44 86-22 90.5 36.5z" glyph-name="Utilde" horiz-adv-x="1576" unicode="Ũ"/><glyph d="M1198 244q16-14 46-31.5t40-32 8-43.5q-2-66-71.5-110.5T1061-18q-213 0-262 131-43-63-127-97T487-18Q303-18 215 82t-88 240v139q0 119-6 172t-33 88q-43 59-55.5 84.5T23 858q2 59 94 90 141 45 207 64 86 25 131-12t45-126V522q0-61 1-91t8-82 21.5-78.5 44-48T647 201q137 0 137 196v64q0 119-6 172t-33 88q-43 59-55 84.5T680 858q2 59 94 90 141 45 207 64 86 25 132-12t46-126V419.5l1-42 3-35.5 5-32.5 7.5-27 9.5-23.5 13-15zM905 1335q25 20 48.5 24.5t38-9 12.5-39.5q-8-76-61.5-143.5T782 1100q-51 0-112.5 22.5t-102.5 43-90 17.5-90-46q-43-43-80-26t-20 71q29 94 77 149t142 55q59 0 121.5-22.5t101.5-44 86-21.5 90 37z" glyph-name="utilde" horiz-adv-x="1304" unicode="ũ"/><glyph d="M1513 1370q2-27-11-52.5t-54-82.5q-27-37-34-92.5t-7-169.5V616q0-315-147.5-474.5T829-18q-317 0-488 158.5T170 616v357q0 119-6 172t-33 90q-43 59-56.5 83.5T63 1370q6 63 97 64h407q90 0 97-64 2-27-11.5-51.5T596 1235q-27-37-33-90t-6-172V616q0-449 334-448 324 0 323 448v357q0 115-7 170t-33 92q-43 59-55.5 83.5T1108 1370q2 63 94 64h217q88-1 94-64zm-366 399q33 0 56.5-22.5t23.5-56.5v-33q0-35-23.5-57.5T1147 1577H592q-33 0-56.5 23.5T512 1657v33q0 33 23.5 56t56.5 23h555z" glyph-name="Umacron" horiz-adv-x="1576" unicode="Ū"/><glyph d="M1198 244q16-14 46-31.5t40-32 8-43.5q-2-66-71.5-110.5T1061-18q-213 0-262 131-43-63-127-97T487-18Q303-18 215 82t-88 240v139q0 119-6 172t-33 88q-43 59-55.5 84.5T23 858q2 59 94 90 141 45 207 64 86 25 131-12t45-126V522q0-61 1-91t8-82 21.5-78.5 44-48T647 201q137 0 137 196v64q0 119-6 172t-33 88q-43 59-55 84.5T680 858q2 59 94 90 141 45 207 64 86 25 132-12t46-126V419.5l1-42 3-35.5 5-32.5 7.5-27 9.5-23.5 13-15zM913 1339q33 0 56.5-22.5T993 1260v-33q0-35-23.5-57.5T913 1147H358q-33 0-56 23.5t-23 56.5v33q0 33 23.5 56t55.5 23h555z" glyph-name="umacron" horiz-adv-x="1304" unicode="ū"/><glyph d="M1513 1370q2-27-11-52.5t-54-82.5q-27-37-34-92.5t-7-169.5V616q0-315-147.5-474.5T829-18q-317 0-488 158.5T170 616v357q0 119-6 172t-33 90q-43 59-56.5 83.5T63 1370q6 63 97 64h407q90 0 97-64 2-27-11.5-51.5T596 1235q-27-37-33-90t-6-172V616q0-449 334-448 324 0 323 448v357q0 115-7 170t-33 92q-43 59-55.5 83.5T1108 1370q2 63 94 64h217q88-1 94-64zm-434 469q53 0 45-65-10-84-98-152-76-61-176-61-147 0-234 118-59 80-38 133 12 27 43 27 16 0 43.5-18.5t74.5-36 111-17.5q84 0 150.5 36t78.5 36z" glyph-name="Ubreve" horiz-adv-x="1576" unicode="Ŭ"/><glyph d="M1198 244q16-14 46-31.5t40-32 8-43.5q-2-66-71.5-110.5T1061-18q-213 0-262 131-43-63-127-97T487-18Q303-18 215 82t-88 240v139q0 119-6 172t-33 88q-43 59-55.5 84.5T23 858q2 59 94 90 141 45 207 64 86 25 131-12t45-126V522q0-61 1-91t8-82 21.5-78.5 44-48T647 201q137 0 137 196v64q0 119-6 172t-33 88q-43 59-55 84.5T680 858q2 59 94 90 141 45 207 64 86 25 132-12t46-126V419.5l1-42 3-35.5 5-32.5 7.5-27 9.5-23.5 13-15zM887 1389q53 0 45-66-10-84-98-152-76-61-177-61-147 0-233 119-59 80-39 133 12 27 43 27 16 0 44-18.5t75-36 110-17.5q84 0 151 36t79 36z" glyph-name="ubreve" horiz-adv-x="1304" unicode="ŭ"/><glyph d="M1513 1370q2-27-11-52.5t-54-82.5q-27-37-34-92.5t-7-169.5V616q0-315-147.5-474.5T829-18q-317 0-488 158.5T170 616v357q0 119-6 172t-33 90q-43 59-56.5 83.5T63 1370q6 63 97 64h407q90 0 97-64 2-27-11.5-51.5T596 1235q-27-37-33-90t-6-172V616q0-449 334-448 324 0 323 448v357q0 115-7 170t-33 92q-43 59-55.5 83.5T1108 1370q2 63 94 64h217q88-1 94-64zm-663 576q117 0 186.5-56.5T1106 1737q0-94-69.5-150.5T850 1530q-119 0-187.5 55T594 1736.5t68.5 153T850 1946zm0-332q68 0 68 123 0 125-68 125t-68-125q0-123 68-123z" glyph-name="Uring" horiz-adv-x="1576" unicode="Ů"/><glyph d="M1198 244q16-14 46-31.5t40-32 8-43.5q-2-66-71.5-110.5T1061-18q-213 0-262 131-43-63-127-97T487-18Q303-18 215 82t-88 240v139q0 119-6 172t-33 88q-43 59-55.5 84.5T23 858q2 59 94 90 141 45 207 64 86 25 131-12t45-126V522q0-61 1-91t8-82 21.5-78.5 44-48T647 201q137 0 137 196v64q0 119-6 172t-33 88q-43 59-55 84.5T680 858q2 59 94 90 141 45 207 64 86 25 132-12t46-126V419.5l1-42 3-35.5 5-32.5 7.5-27 9.5-23.5 13-15zM637 1516q117 0 186.5-56.5T893 1307q0-94-69.5-150.5T637 1100q-119 0-187.5 55T381 1306.5t68.5 153T637 1516zm0-332q68 0 68 123 0 125-68 125t-68-125q0-123 68-123z" glyph-name="uring" horiz-adv-x="1304" unicode="ů"/><glyph d="M1513 1370q2-27-11-52.5t-54-82.5q-27-37-34-92.5t-7-169.5V616q0-315-147.5-474.5T829-18q-317 0-488 158.5T170 616v357q0 119-6 172t-33 90q-43 59-56.5 83.5T63 1370q6 63 97 64h407q90 0 97-64 2-27-11.5-51.5T596 1235q-27-37-33-90t-6-172V616q0-449 334-448 324 0 323 448v357q0 115-7 170t-33 92q-43 59-55.5 83.5T1108 1370q2 63 94 64h217q88-1 94-64zm-612 604q59-41 65.5-104.5T918 1747q-51-51-201-166-63-51-84-51-14-2-31 10-8 4-12 10t-7 11.5-4 13.5-1 13 3 15.5 5 16.5 6 20.5 6 22.5q55 180 86 246 33 72 97.5 89t119.5-24zm387 0q59-41 65.5-104.5T1303 1747q-51-51-199-166-4-4-14.5-12t-14.5-11.5-12-8.5-12-8-11.5-6-11.5-4-9-2-10 1-10.5 4-11.5 6q-33 25-6 109 2 10 4 14 49 162 84 246 33 72 98.5 89t120.5-24z" glyph-name="Uhungarumlaut" horiz-adv-x="1576" unicode="Ű"/><glyph d="M1198 244q16-14 46-31.5t40-32 8-43.5q-2-66-71.5-110.5T1061-18q-213 0-262 131-43-63-127-97T487-18Q303-18 215 82t-88 240v139q0 119-6 172t-33 88q-43 59-55.5 84.5T23 858q2 59 94 90 141 45 207 64 86 25 131-12t45-126V522q0-61 1-91t8-82 21.5-78.5 44-48T647 201q137 0 137 196v64q0 119-6 172t-33 88q-43 59-55 84.5T680 858q2 59 94 90 141 45 207 64 86 25 132-12t46-126V419.5l1-42 3-35.5 5-32.5 7.5-27 9.5-23.5 13-15zM627 1544q59-41 65-104.5T643 1317q-51-51-201-166-63-51-84-51-14-2-30 10-8 4-12.5 10t-7.5 11.5-4 13.5-1 13 3 15.5 5 16.5 6.5 20.5 6.5 22.5q55 180 86 246 33 72 97.5 89t119.5-24zm387 0q59-41 65-104.5t-51-122.5q-51-51-199-166-4-4-14-12.5t-14-11.5-12.5-8-12.5-8-11-6-11-4-9.5-2-10.5 1l-10 4-11 6q-33 25-6 109 2 10 4 14 49 162 84 246 33 72 98.5 89t120.5-24z" glyph-name="uhungarumlaut" horiz-adv-x="1304" unicode="ű"/><glyph d="M1511 1372q2-43-65-137-27-37-34-91t-7-171V618q0-563-459-626-84-121-73.5-197t98.5-86q45-4 57-36.5t-8-55.5q-35-53-110.5-68.5t-147.5 5-117 85T621-207Q648-90 776-14 481-4 324.5 153.5T168 618v355q0 121-6 174t-33 88q-43 59-55.5 85T63 1372q2 61 95 62h407q90 0 97-62 2-43-66-137-27-35-34-88t-7-174V618q0-451 334-450 324 0 323 450v355q0 117-7 171t-34 91q-43 59-55 85t-10 52q2 61 94 62h217q92-1 94-62z" glyph-name="Uogonek" horiz-adv-x="1574" unicode="Ų"/><glyph d="M1198 246q16-14 46-31.5t40-33 8-44.5q-2-57-60-99t-138-52q-80-119-69-193t99-84q43-4 54.5-36.5T1171-383q-35-53-109.5-68.5t-146 5-116.5 85T774-207q12 61 61.5 115.5T946-6Q835 21 799 115q-43-63-128-98T487-18Q303-18 215 83t-88 239v139q0 119-6 173t-33 89q-43 59-55.5 83.5T23 858q2 61 94 92 31 8 112.5 33t94.5 29q86 25 131-12t45-126V522q0-59 1-89t8-82 21.5-78.5 44-48T647 203q137 0 137 196v62q0 119-6 173t-33 89q-43 59-55 83.5T680 858q2 61 94 92 31 8 114 33t93 29q86 25 131-12t45-126V553q0-219 19-270 8-25 22-37z" glyph-name="uogonek" horiz-adv-x="1304" unicode="ų"/><glyph d="M2077 1434q109 0 108-64 0-37-18.5-66.5t-44-54-64.5-96.5-69-180q-215-729-232-780-35-111-78-152T1530 0q-109 0-162 38t-82 155q-6 25-71.5 277.5T1120 842q-59-205-198-668-31-104-76-139T690 0Q584 0 533.5 35T446 184q-33 96-247 793-35 111-76 184.5t-66.5 97-42 49T2 1370q6 63 94 64h484q102 0 108-64 6-39-17.5-74.5t-51-64.5-39-94.5T598 973l168-584q231 799 258 887 14 51 26.5 80.5t38 53.5 60.5 24h143q35 0 57.5-26t28.5-46.5 21-73.5l237-899 170 584q31 109 24 176.5t-30.5 95-43 59-11.5 66.5q12 63 94 64h238zm-516 184q25-31 11.5-52.5T1522 1544h-19q-61 0-289 139-227-139-288-139h-19q-37 0-50 21.5t11 52.5q113 127 213 231 31 31 47.5 40t47.5 9h77q31 0 47.5-9t47.5-40q100-104 213-231z" glyph-name="Wcircumflex" horiz-adv-x="2185" unicode="Ŵ"/><glyph d="M1645 946q-2-33-25-58.5t-58.5-82.5-62.5-152q-143-489-153-516-31-82-76-109.5T1141 0q-45 0-72 3t-59.5 14.5-54 38T922 127q-57 217-101 373-90-350-94-363-23-84-70-110.5T522 0q-59 0-92 6t-68.5 35-56.5 86q-16 41-141 412-43 125-67.5 178T37 817q-25 35-35 50.5t-16 34-4 40.5q8 61 110 62h326q68 0 97.5-14.5T541 928q-4-29-41-73t-27-81l135-471q147 547 166 610 12 51 30.5 71t61.5 20h117q43 0 59.5-15.5T1071 928l156-625 100 350q27 113 13.5 152t-38 73.5T1282 946q4 57 80 58h219q35 0 50.5-16.5T1645 946zm-363 221q25-31 11.5-52t-50.5-21h-18q-61 0-289 139-227-139-289-139h-18q-37 0-50.5 21.5T590 1167q113 127 213 232 31 31 47 40t47 9h78q31 0 47-9t47-40q100-105 213-232z" glyph-name="wcircumflex" horiz-adv-x="1667" unicode="ŵ"/><glyph d="M1333 1434q109 0 111-64 0-39-22.5-71.5T1364 1237t-90-99.5T1167 973L940 543v-54q0-238 39-290 70-96 68-138-6-61-97-61H543q-92 0-94 61-2 27 10 52.5t55 85.5q39 53 39 290v39L274 973q-74 119-149.5 201.5T23.5 1290 2 1370q6 63 94 64h428q100 0 109-64 4-37-7.5-77t-21.5-69.5 7.5-94T682 973l154-260 131 260q43 86 54 151.5t1 98-19.5 72.5-1.5 75q14 63 97 64h235zm-164 184q25-31 11.5-52.5T1130 1544h-18q-63 0-289 139-225-139-288-139h-19q-37 0-50 21.5t11 52.5q113 127 213 231 31 31 47.5 40t46.5 9h78q31 0 47.5-9t46.5-40q100-104 213-231z" glyph-name="Ycircumflex" horiz-adv-x="1443" unicode="Ŷ"/><glyph d="M1112 946q-2-29-18.5-51.5t-39-43-55-72.5T938 653Q799 295 735 119q-16-45-47-135t-46-132-46-105.5-58.5-95.5-71.5-62.5-97-43.5q-117-27-244 10T-16-317q-10 66 22.5 110.5T92-152q55 10 96-6t61.5-41.5 50.5-45 65-15.5q20 4 35.5 15.5t40 58.5T494-53q-10 25-62.5 132t-117 242.5T201 561q-35 72-61.5 116T75 768t-38 49q-25 35-35 50.5t-16 34-4 40.5q8 61 110 62h297q68 0 97.5-14.5T512 928q-2-20-22.5-68.5T485 774l166-399 103 278q39 123 34.5 162t-24 72-14.5 59q2 33 20 45.5t59 12.5h220q63-1 63-58zm-139 242q25-31 11.5-52.5T934 1114h-19q-63 0-288 139-227-139-289-139h-19q-37 0-50 21.5t12 52.5q113 127 213 231 31 31 47 40t47 9h78q31 0 47-9t47-40q100-104 213-231z" glyph-name="ycircumflex" horiz-adv-x="1132" unicode="ŷ"/><glyph d="M1333 1434q109 0 111-64 0-39-22.5-71.5T1364 1237t-90-99.5T1167 973L940 543v-54q0-238 39-290 70-96 68-138-6-61-97-61H543q-92 0-94 61-2 27 10 52.5t55 85.5q39 53 39 290v39L274 973q-74 119-149.5 201.5T23.5 1290 2 1370q6 63 94 64h428q100 0 109-64 4-37-7.5-77t-21.5-69.5 7.5-94T682 973l154-260 131 260q43 86 54 151.5t1 98-19.5 72.5-1.5 75q14 63 97 64h235zm-706.5 428q75.5 0 123-46.5T797 1696q0-72-47.5-119t-123-47-123.5 47-48 119q0 74 48 120t123.5 46zm395.5 0q76 0 123-46.5t47-120-47-119.5-123-46-123 46-47 119.5 47 120 123 46.5z" glyph-name="Ydieresis" horiz-adv-x="1443" unicode="Ÿ"/><glyph d="M1204 506q41 0 62.5-25.5T1280 408q-8-49-25.5-150.5T1231 117q-10-63-41-90t-96-27H158Q70 0 51.5 60.5T86 193q12 16 664 1046H530q-158 0-229-137-61-115-99-145.5T119 926q-39 0-61.5 26.5T43 1026t26.5 147.5T94 1315q10 66 41 92.5t94 26.5h875q92 0 114.5-58.5T1194 1243q-18-31-664-1050h263q158 0 231 139 59 111 94 141 39 33 86 33zM958 1745q31-61 1.5-120.5T850 1548q-84-20-258-32-45-8-76-5.5t-43 33.5q-4 8-5 15.5t-1 12.5 4 11 7 11 11.5 12.5T502 1618t15 13 18 16q125 106 204 161 70 41 131 23t88-86z" glyph-name="Zacute" horiz-adv-x="1323" unicode="Ź"/><glyph d="M952 397q29 0 43.5-18.5T1006 328q-25-172-37-246-6-45-27.5-63.5T874 0H131Q61 0 46 47t26 105q143 213 448 659H403q-119 0-161-82-2-2-10.5-17.5T221 692t-10-17-12-18.5-12.5-15.5-15.5-14-16.5-10.5T135 608t-20-2q-29 0-43.5 18.5T61 676q25 172 37 246 6 45 27.5 63.5T193 1004h675q70 0 88.5-48.5T936 852q-8-12-447-659h175q119 0 161 81 2 2 10.5 17.5T846 311t10 17.5 12 18.5 12.5 15.5T896 377t16.5 10 19.5 8 20 2zm-92 938q31-61 1-120.5T752 1139q-84-20-258-33-45-8-76-5t-43 34q-4 8-5 15t-1 12 4 11.5 7 11.5 11 12 12.5 11 15.5 13.5 17 15.5q125 106 205 162 70 41 131 22.5t88-86.5z" glyph-name="zacute" horiz-adv-x="1048" unicode="ź"/><glyph d="M1204 506q41 0 62.5-25.5T1280 408q-8-49-25.5-150.5T1231 117q-10-63-41-90t-96-27H158Q70 0 51.5 60.5T86 193q12 16 664 1046H530q-158 0-229-137-61-115-99-145.5T119 926q-39 0-61.5 26.5T43 1026t26.5 147.5T94 1315q10 66 41 92.5t94 26.5h875q92 0 114.5-58.5T1194 1243q-18-31-664-1050h263q158 0 231 139 59 111 94 141 39 33 86 33zM702.5 1862q75.5 0 122.5-46.5t47-120-47-119.5-122.5-46-124 47-48.5 119q0 74 48.5 120t124 46z" glyph-name="Zdotaccent" horiz-adv-x="1323" unicode="Ż"/><glyph d="M952 397q29 0 43.5-18.5T1006 328q-25-172-37-246-6-45-27.5-63.5T874 0H131Q61 0 46 47t26 105q143 213 448 659H403q-119 0-161-82-2-2-10.5-17.5T221 692t-10-17-12-18.5-12.5-15.5-15.5-14-16.5-10.5T135 608t-20-2q-29 0-43.5 18.5T61 676q25 172 37 246 6 45 27.5 63.5T193 1004h675q70 0 88.5-48.5T936 852q-8-12-447-659h175q119 0 161 81 2 2 10.5 17.5T846 311t10 17.5 12 18.5 12.5 15.5T896 377t16.5 10 19.5 8 20 2zM586 1432q76 0 123-46.5t47-120-47-119.5-123-46-124 47-48 119q0 74 48 120t124 46z" glyph-name="zdotaccent" horiz-adv-x="1048" unicode="ż"/><glyph d="M1204 506q41 0 62.5-25.5T1280 408q-8-49-25.5-150.5T1231 117q-10-63-41-90t-96-27H158Q70 0 51.5 60.5T86 193q12 16 664 1046H530q-158 0-229-137-61-115-99-145.5T119 926q-39 0-61.5 26.5T43 1026t26.5 147.5T94 1315q10 66 41 92.5t94 26.5h875q92 0 114.5-58.5T1194 1243q-18-31-664-1050h263q158 0 231 139 59 111 94 141 39 33 86 33zm-174 1392q35 0 49.5-21.5T1069 1823q-61-70-213-230-31-31-47-40t-49-9h-76q-33 0-49.5 9.5T590 1593q-111 113-215 230-25 33-10.5 54t51.5 21h18q47 0 289-139 231 139 289 139h18z" glyph-name="Zcaron" horiz-adv-x="1323" unicode="Ž"/><glyph d="M952 397q29 0 43.5-18.5T1006 328q-25-172-37-246-6-45-27.5-63.5T874 0H131Q61 0 46 47t26 105q143 213 448 659H403q-119 0-161-82-2-2-10.5-17.5T221 692t-10-17-12-18.5-12.5-15.5-15.5-14-16.5-10.5T135 608t-20-2q-29 0-43.5 18.5T61 676q25 172 37 246 6 45 27.5 63.5T193 1004h675q70 0 88.5-48.5T936 852q-8-12-447-659h175q119 0 161 81 2 2 10.5 17.5T846 311t10 17.5 12 18.5 12.5 15.5T896 377t16.5 10 19.5 8 20 2zm-59 1071q35 0 49-21.5t-10-53.5q-61-70-213-230-31-31-47.5-40t-48.5-9h-76q-33 0-49.5 9.5T453 1163q-111 113-215 230-25 33-10.5 54t51.5 21h18q47 0 289-139 231 139 288 139h19z" glyph-name="zcaron" horiz-adv-x="1048" unicode="ž"/><glyph d="M539 1532q193 6 284.5-97.5T866 1229q-25-51-84-65.5t-113.5 17T606 1280q-10 78-32.5 111.5T508 1423q-72-2-76-98 0-53 27.5-113.5T516 1071t29-174V461q0-180 14-219 8-25 25-43 47-53 65.5-82T664 61q-8-61-95-61H162Q72 0 66 61q-2 43 65 138 27 35 33 88t6 174v364H59q-33 0-56 23.5T-20 905v19q0 33 23.5 56.5T59 1004h101q-18 279 79 400.5T539 1532z" glyph-name="longs" horiz-adv-x="739" unicode="ſ"/><glyph d="M2015 506q39 0 61.5-25.5t14.5-73-26.5-148.5-24.5-142q-10-66-41-91.5T1905 0H995q-90 0-96 61-2 43 66 138 39 55 39 241H567q-63-92-94-155.5t-30-92 1-62.5-4-69Q428 0 344 0H90Q0 6 0 61q0 41 27.5 73t94 85T238 326q416 573 530 745 33 49 33 92t-17.5 68.5-33 63.5-9.5 75q8 63 97 64h1024q66 0 96.5-27t40.5-92q4-25 22.5-132.5T2048 1024q8-45-13.5-71.5T1972 926q-43 0-82 32.5t-54 59-44 84.5q-76 137-227 137-102-2-137-52t-35-214V827q117 6 147 35 18 16 38.5 43t35 38 35.5 11q27 0 39-18t14-38.5 2-61.5V625q0-41-2-60.5t-14.5-38T1649 508q-20 0-35 11t-35 38-39 43q-35 29-147 33V461q0-168 36.5-218t147.5-50h27q160 0 229 139 2 2 12 22.5t13.5 24.5 13.5 22.5 15 24.5 16.5 20.5T1922 467t19.5 15.5T1964 496t23.5 7 27.5 3zM1004 635v436L694 635h310zm546 1110q31-61 1.5-120.5T1442 1548q-84-20-258-32-45-8-76-5.5t-43 33.5q-4 8-5 15.5t-1 12.5 4 11 7 11 11.5 12.5 12.5 11.5 15 13 17 16q125 106 205 161 70 41 131 23t88-86z" glyph-name="AEacute" horiz-adv-x="2134" unicode="Ǽ"/><glyph d="M1579 303q45 43 77 18.5t5-81.5q-51-113-161.5-185.5T1219-18q-283 0-445 180Q663-18 401-18q-176 0-273 76.5T31 264q0 193 158.5 273.5T639 618v27q0 68-4 107t-24.5 71.5T551 862q-109 14-141-86-55-174-209-123-47 16-71 64.5T129 827q74 193 442 193 201 0 306-82 137 88 331 82 209-6 328-124t133-261q10-106-17.5-148.5T1528 444h-506q23-125 126-187t226-48 205 94zm-555 365q-4-16 2-29.5t21-13.5h239q78 0 55 96-35 143-163 135-115-10-154-188zM653 344v82q0 47-21.5 57.5T557 481q-59-10-101-53t-46-106q-6-150 125-150 118 0 118 172zm432 991q31-61 1.5-120.5T977 1139q-84-20-258-33-45-8-76-5t-43 34q-4 8-5 15t-1 12 4 11.5 7 11.5 11.5 12 12.5 11 15 13.5 18 15.5q125 106 204 162 70 41 131 22.5t88-86.5z" glyph-name="aeacute" horiz-adv-x="1693" unicode="ǽ"/><glyph d="M1315 1253q213-201 213-536 0-332-208-533.5T784-18Q548-18 365 94q-20-25-27-31-68-82-127-81-43 0-60.5 27.5T164 76q2 4 32.5 41t53.5 65Q41 385 41 717t208 532.5T784 1450q231 0 414-109 12 16 16 19 72 90 129 90 41 0 59.5-27.5T1384 1337q-2-4-13-17t-25.5-31-30.5-36zM479 717q0-131 21-228 166 199 510 623-80 154-226 154-141 0-223-150.5T479 717zm305-551q143 0 225.5 151.5T1092 717q0 129-25 233-92-115-275.5-337T555 328q84-162 229-162zm236 1579q31-61 1-120.5T911 1548q-84-20-258-32-45-8-75.5-5.5T535 1544q-4 8-5.5 15.5T528 1572t4.5 11 7.5 11 11 12.5 12 11.5 15.5 13 17.5 16q125 106 205 161 70 41 131 23t88-86z" glyph-name="Oslashacute" horiz-adv-x="1568" unicode="Ǿ"/><glyph d="M995 870q141-137 142-368 0-240-150.5-380T580-18q-182 0-310 71-59-72-127-71-39 0-52 30.5T109 82q18 25 49 55Q21 278 20 502q0 240 152 379t408 139q172 0 299-66 59 68 116 68 49 0 57.5-39t-34.5-86q-15-15-23-27zM401 502q0-29 5-82 141 158 294 334-45 72-120 71-86 0-132.5-89T401 502zm179-326q84 0 130 90t46 236q0 47-6 94-39-45-143.5-163T453 258q45-82 127-82zm231 1159q31-61 1-120.5T702 1139q-84-20-258-33-45-8-75.5-5t-42.5 34q-4 8-5.5 15t-1.5 12 4.5 11.5 7.5 11.5 11 12 12 11 15.5 13.5T387 1237q125 106 205 162 70 41 131 22.5t88-86.5z" glyph-name="oslashacute" horiz-adv-x="1177" unicode="ǿ"/><glyph d="M807 858q276-125 380.5-228.5T1270 354q-27-203-177.5-287.5T682-18q-141 0-265 34.5t-201 88-128 118-46 125T84 455q35 37 91 50t111.5-8.5T371 420q4-10 19.5-43t24.5-48.5 27.5-44 38-44 47-33T593 180t83-12q166-12 186 100 20 111-135 193-25 12-115 54t-144 69.5-135 84T207 778t-74 133-18 168q47 397 583 371 219-12 366.5-101t162-186.5T1180 991q-55-51-140.5-43T905 1028q-14 20-42.5 93T791 1229t-129 37q-84 0-129.5-41T496 1112q8-70 77.5-125T807 858zM680-86q74 0 122-50t48-130q0-102-43-197.5T688-614q-51-37-85-10.5t7 81.5q43 61 54 127-70 6-111 51.5T512-252q0 74 46 120t122 46z" glyph-name="Scommaaccent" horiz-adv-x="1316" unicode="Ș"/><glyph d="M608 643q215-86 269-121 141-90 120-243-4-23-10-48-33-127-155.5-188T528-18Q405-18 304 7.5T142.5 75 49 167 20.5 267 61 358q45 53 119 40t101-93q20-63 58-99t65.5-44 82.5-17q154-20 172 58 6 23-4 40t-39.5 33.5T558 304t-80 30.5-89 36.5q-41 18-67.5 31.5t-68.5 38-68.5 48T131 548t-38 73.5-11 88T100 815q76 225 455 205 94-6 171-32.5T846 922t65.5-84 17.5-90.5-34-79.5q-33-43-104.5-38T686 692q-6 10-26.5 65.5t-49 77T522 860q-111 12-125-61-8-39 40-73t171-83zM508-86q74 0 122-50t48-130q0-102-43-197.5T516-614q-51-37-85-10.5t7 81.5q43 61 54 127-70 6-111 51.5T340-252q0 74 46 120t122 46z" glyph-name="scommaaccent" horiz-adv-x="1040" unicode="ș"/><glyph d="M772 1208q25-31 11.5-52t-50.5-21h-18q-63 0-289 139-225-139-289-139h-18q-37 0-50.5 21.5T80 1208q113 127 213 232 31 31 47 40t47 9h78q31 0 47-9.5t47-39.5q100-105 213-232z" glyph-name="circumflex" horiz-adv-x="851" unicode="ˆ"/><glyph d="M733 1489q35 0 49.5-21.5T772 1413q-61-70-213-229-31-31-47-40t-49-9h-76q-33 0-49 9t-45 40q-111 113-215 229-25 33-10.5 54.5T119 1489h18q47 0 289-139 231 139 289 139h18z" glyph-name="caron" horiz-adv-x="849" unicode="ˇ"/><glyph d="M567 1430q53 0 45-66-10-84-98-152-76-61-176-61-147 0-234 119-59 80-38 133 12 27 43 27 12 0 77.5-36t151.5-36q84 0 150.5 36t78.5 36z" glyph-name="breve" horiz-adv-x="675" unicode="˘"/><glyph d="M233.5 1452q75.5 0 122.5-46t47-120-47-120-122.5-46-124 47T61 1286q0 74 48.5 120t124 46z" glyph-name="dotaccent" horiz-adv-x="464" unicode="˙"/><glyph d="M317 1536q117 0 186.5-56.5T573 1327q0-94-69.5-150.5T317 1120q-119 0-187.5 55.5T61 1327t68.5 152.5T317 1536zm.5-332q67.5 0 67.5 123 0 125-67.5 125T250 1327q0-123 67.5-123z" glyph-name="ring" horiz-adv-x="634" unicode="˚"/><glyph d="M467-383q-35-53-109.5-68.5t-146.5 5-117 85T70-207q16 74 84.5 138.5T293 14h119q-98-129-92-212t100-93q43-4 54-36.5t-7-55.5z" glyph-name="ogonek" horiz-adv-x="540" unicode="˛"/><glyph d="M684 1356q25 20 48.5 24t37.5-9 12-40q-8-76-61-143.5T561 1120q-51 0-112.5 22.5t-102.5 43-90 17.5-90-46q-43-43-80-25.5T66 1202q29 94 76.5 149.5T285 1407q59 0 121.5-22.5t101.5-44 86-21.5 90 37z" glyph-name="tilde" horiz-adv-x="845" unicode="˜"/><glyph d="M385 1565q59-41 65.5-104.5T401 1337q-51-51-200-166-63-51-84-51-14-2-31 10-8 4-12 10.5t-7.5 11.5-4.5 13.5-1 13.5 3.5 15 5.5 16.5 6 20.5 6 22q55 180 86 246 33 72 97.5 89.5T385 1565zm387 0q59-41 65.5-104.5T786 1337q-51-51-198-166-4-4-14.5-12t-14.5-11-12-8-12.5-8.5-11.5-6.5-11-4-9-2-10.5 1-10.5 4-11 6q-33 25-6 109 2 10 4 14 49 162 84 246 33 72 98.5 89.5T772 1565z" glyph-name="hungarumlaut" horiz-adv-x="899" unicode="˝"/><glyph d="M2077 1434q109 0 108-64 0-37-18.5-66.5t-44-54-64.5-96.5-69-180q-215-729-232-780-35-111-78-152T1530 0q-109 0-162 38t-82 155q-6 25-71.5 277.5T1120 842q-59-205-198-668-31-104-76-139T690 0Q584 0 533.5 35T446 184q-33 96-247 793-35 111-76 184.5t-66.5 97-42 49T2 1370q6 63 94 64h484q102 0 108-64 6-39-17.5-74.5t-51-64.5-39-94.5T598 973l168-584q231 799 258 887 14 51 26.5 80.5t38 53.5 60.5 24h143q35 0 57.5-26t28.5-46.5 21-73.5l237-899 170 584q31 109 24 176.5t-30.5 95-43 59-11.5 66.5q12 63 94 64h238zM944 1745q27 68 88.5 86t130.5-23q80-55 205-161 6-6 17.5-15.5t15.5-13.5 12-11.5 11-12.5 7.5-11 4.5-11-1-12.5-5-15.5q-12-31-43-34t-76 6q-174 12-258 32-80 16-110 76t1 121z" glyph-name="Wgrave" horiz-adv-x="2185" unicode="Ẁ"/><glyph d="M1645 946q-2-33-25-58.5t-58.5-82.5-62.5-152q-143-489-153-516-31-82-76-109.5T1141 0q-45 0-72 3t-59.5 14.5-54 38T922 127q-57 217-101 373-90-350-94-363-23-84-70-110.5T522 0q-59 0-92 6t-68.5 35-56.5 86q-16 41-141 412-43 125-67.5 178T37 817q-25 35-35 50.5t-16 34-4 40.5q8 61 110 62h326q68 0 97.5-14.5T541 928q-4-29-41-73t-27-81l135-471q147 547 166 610 12 51 30.5 71t61.5 20h117q43 0 59.5-15.5T1071 928l156-625 100 350q27 113 13.5 152t-38 73.5T1282 946q4 57 80 58h219q35 0 50.5-16.5T1645 946zM621 1335q27 68 88 86.5t131-22.5q80-55 204-162 6-6 17.5-15.5t15.5-13.5 12.5-11 11.5-12 7-11.5 4-11.5-1-12-5-15q-12-31-43-34t-76 5q-174 12-258 33-80 16-109.5 75.5T621 1335z" glyph-name="wgrave" horiz-adv-x="1667" unicode="ẁ"/><glyph d="M2077 1434q109 0 108-64 0-37-18.5-66.5t-44-54-64.5-96.5-69-180q-215-729-232-780-35-111-78-152T1530 0q-109 0-162 38t-82 155q-6 25-71.5 277.5T1120 842q-59-205-198-668-31-104-76-139T690 0Q584 0 533.5 35T446 184q-33 96-247 793-35 111-76 184.5t-66.5 97-42 49T2 1370q6 63 94 64h484q102 0 108-64 6-39-17.5-74.5t-51-64.5-39-94.5T598 973l168-584q231 799 258 887 14 51 26.5 80.5t38 53.5 60.5 24h143q35 0 57.5-26t28.5-46.5 21-73.5l237-899 170 584q31 109 24 176.5t-30.5 95-43 59-11.5 66.5q12 63 94 64h238zm-584 311q31-61 1-120.5t-110-76.5q-84-20-258-32-45-8-75.5-5.5T1008 1544q-4 8-5.5 15.5t-1.5 12.5 4.5 11 7.5 11 11 12.5 12 11.5 15.5 13 17.5 16q125 106 205 161 70 41 131 23t88-86z" glyph-name="Wacute" horiz-adv-x="2185" unicode="Ẃ"/><glyph d="M1645 946q-2-33-25-58.5t-58.5-82.5-62.5-152q-143-489-153-516-31-82-76-109.5T1141 0q-45 0-72 3t-59.5 14.5-54 38T922 127q-57 217-101 373-90-350-94-363-23-84-70-110.5T522 0q-59 0-92 6t-68.5 35-56.5 86q-16 41-141 412-43 125-67.5 178T37 817q-25 35-35 50.5t-16 34-4 40.5q8 61 110 62h326q68 0 97.5-14.5T541 928q-4-29-41-73t-27-81l135-471q147 547 166 610 12 51 30.5 71t61.5 20h117q43 0 59.5-15.5T1071 928l156-625 100 350q27 113 13.5 152t-38 73.5T1282 946q4 57 80 58h219q35 0 50.5-16.5T1645 946zm-455 389q31-61 1-120.5t-110-75.5q-84-20-258-33-45-8-75.5-5t-42.5 34q-4 8-5.5 15t-1.5 12 4.5 11.5 7.5 11.5 11 12 12 11 15.5 13.5T766 1237q125 106 205 162 70 41 131 22.5t88-86.5z" glyph-name="wacute" horiz-adv-x="1667" unicode="ẃ"/><glyph d="M2077 1434q109 0 108-64 0-37-18.5-66.5t-44-54-64.5-96.5-69-180q-215-729-232-780-35-111-78-152T1530 0q-109 0-162 38t-82 155q-6 25-71.5 277.5T1120 842q-59-205-198-668-31-104-76-139T690 0Q584 0 533.5 35T446 184q-33 96-247 793-35 111-76 184.5t-66.5 97-42 49T2 1370q6 63 94 64h484q102 0 108-64 6-39-17.5-74.5t-51-64.5-39-94.5T598 973l168-584q231 799 258 887 14 51 26.5 80.5t38 53.5 60.5 24h143q35 0 57.5-26t28.5-46.5 21-73.5l237-899 170 584q31 109 24 176.5t-30.5 95-43 59-11.5 66.5q12 63 94 64h238zm-1059 428q76 0 123-46.5t47-119.5q0-72-47-119t-123-47-124 47-48 119q0 74 48 120t124 46zm395 0q76 0 123-46.5t47-120-47-119.5-123-46-123 46-47 119.5 47 120 123 46.5z" glyph-name="Wdieresis" horiz-adv-x="2185" unicode="Ẅ"/><glyph d="M1645 946q-2-33-25-58.5t-58.5-82.5-62.5-152q-143-489-153-516-31-82-76-109.5T1141 0q-45 0-72 3t-59.5 14.5-54 38T922 127q-57 217-101 373-90-350-94-363-23-84-70-110.5T522 0q-59 0-92 6t-68.5 35-56.5 86q-16 41-141 412-43 125-67.5 178T37 817q-25 35-35 50.5t-16 34-4 40.5q8 61 110 62h326q68 0 97.5-14.5T541 928q-4-29-41-73t-27-81l135-471q147 547 166 610 12 51 30.5 71t61.5 20h117q43 0 59.5-15.5T1071 928l156-625 100 350q27 113 13.5 152t-38 73.5T1282 946q4 57 80 58h219q35 0 50.5-16.5T1645 946zm-926 486q76 0 123-46.5t47-119.5q0-72-47-119t-123-47-124 47-48 119q0 74 48 120t124 46zm395 0q76 0 123-46.5t47-120-47-119.5-123-46-123 46-47 119.5 47 120 123 46.5z" glyph-name="wdieresis" horiz-adv-x="1667" unicode="ẅ"/><glyph d="M1333 1434q109 0 111-64 0-39-22.5-71.5T1364 1237t-90-99.5T1167 973L940 543v-54q0-238 39-290 70-96 68-138-6-61-97-61H543q-92 0-94 61-2 27 10 52.5t55 85.5q39 53 39 290v39L274 973q-74 119-149.5 201.5T23.5 1290 2 1370q6 63 94 64h428q100 0 109-64 4-37-7.5-77t-21.5-69.5 7.5-94T682 973l154-260 131 260q43 86 54 151.5t1 98-19.5 72.5-1.5 75q14 63 97 64h235zm-801 311q27 68 88.5 86t131.5-23q80-55 204-161 6-6 17.5-15.5T989 1618t12.5-11.5 11.5-12.5 7-11 4-11-1-12.5-5-15.5q-12-31-43-34t-76 6q-174 12-258 32-80 16-110 76t1 121z" glyph-name="Ygrave" horiz-adv-x="1443" unicode="Ỳ"/><glyph d="M1112 946q-2-29-18.5-51.5t-39-43-55-72.5T938 653Q799 295 735 119q-16-45-47-135t-46-132-46-105.5-58.5-95.5-71.5-62.5-97-43.5q-117-27-244 10T-16-317q-10 66 22.5 110.5T92-152q55 10 96-6t61.5-41.5 50.5-45 65-15.5q20 4 35.5 15.5t40 58.5T494-53q-10 25-62.5 132t-117 242.5T201 561q-35 72-61.5 116T75 768t-38 49q-25 35-35 50.5t-16 34-4 40.5q8 61 110 62h297q68 0 97.5-14.5T512 928q-2-20-22.5-68.5T485 774l166-399 103 278q39 123 34.5 162t-24 72-14.5 59q2 33 20 45.5t59 12.5h220q63-1 63-58zm-801 389q27 68 88.5 86.5T530 1399q80-55 205-162 6-6 17.5-15.5T768 1208t12-11 11.5-12 7.5-11.5 4-11.5-1-12-5-15q-12-31-43-34t-76 5q-174 12-258 33-80 16-110 75.5t1 120.5z" glyph-name="ygrave" horiz-adv-x="1132" unicode="ỳ"/><glyph d="M909 731q33 0 56.5-23.5T989 651v-18q0-33-23.5-56.5T909 553H141q-35 0-57.5 22.5T61 633v18q0 33 22.5 56.5T141 731h768z" glyph-name="endash" horiz-adv-x="1050" unicode="–"/><glyph d="M979 731q35 0 58.5-23.5T1061 651v-18q0-33-23.5-56.5T979 553H141q-33 0-56.5 23.5T61 633v18q0 33 24 56.5t56 23.5h838z" glyph-name="emdash" horiz-adv-x="1122" unicode="—"/><glyph d="M252 934q-84 0-137.5 55T61 1137q0 115 49.5 220T244 1524q57 43 95 12t-9-92q-49-68-60-141 76-6 123-56.5t47-128.5q0-80-52-132t-136-52z" glyph-name="quoteleft" horiz-adv-x="501" unicode="‘"/><glyph d="M250 1546q82 0 135-56t53-147q0-113-49-218T256 956q-57-43-94-12t8 92q47 61 61 142-76 6-123 56t-47 128q0 82 52.5 133t136.5 51z" glyph-name="quoteright" horiz-adv-x="499" unicode="’"/><glyph d="M252 352q82 0 135-56t53-146q0-115-49-220.5T258-238q-57-43-94-12t8 92q49 68 59 142-76 6-123 56T61 168q0 82 52.5 133T252 352z" glyph-name="quotesinglbase" horiz-adv-x="501" unicode="‚"/><glyph d="M696 934q-82 0-135 56.5T508 1137q0 113 48 219t132 168q57 43 95 12t-7-92q-47-61-61-141 76-6 123-56.5t47-128.5q0-80-52.5-132T696 934zm-444 0q-84 0-137.5 55T61 1137q0 115 49.5 220T244 1524q57 43 94 12t-8-92q-49-68-60-141 76-6 123-56.5t47-128.5q0-80-52-132t-136-52z" glyph-name="quotedblleft" horiz-adv-x="946" unicode="“"/><glyph d="M252 1546q82 0 135-56t53-147q0-113-49-218T258 956q-57-43-94-12t8 92q47 61 61 142-78 6-125 56t-47 128q0 82 53.5 133t137.5 51zm444 0q82 0 135.5-56t53.5-147q0-113-48.5-218T705 956q-57-43-95.5-12t6.5 92q47 61 62 142-76 6-123 56t-47 128q0 82 52 133t136 51z" glyph-name="quotedblright" horiz-adv-x="946" unicode="”"/><glyph d="M250 352q84 0 137-55t53-147q0-115-49-220.5T258-238q-57-43-95-12t9 92q49 68 59 142-76 6-123 56T61 168q0 82 52.5 133T250 352zm446 0q82 0 135.5-56T885 150q0-115-49.5-220.5T702-238q-57-43-94-12t8 92q47 61 62 142-78 6-125 56t-47 128q0 82 53 133t137 51z" glyph-name="quotedblbase" horiz-adv-x="946" unicode="„"/><glyph d="M893 1028q150 16 149.5-90.5T893 848q-104 12-279 45-4 0-10 1t-8 1q2-4 2-14 29-520 43-703 12-150-88-149-102 0-90 149 14 182 43 703 0 4 1 8t1 6q-2 0-8-1t-11-1q-174-33-278-45-150-16-150 90t150 90q104-12 278-45 10 0 23-4-2 10-6 35-31 172-43 278-16 150 90 150 47 0 71.5-37t16.5-113q-12-106-43-278-4-25-6-35 12 4 22 4 175 33 279 45z" glyph-name="dagger" horiz-adv-x="1103" unicode="†"/><glyph d="M838 537q76 8 112.5-17.5t36.5-73-37-73T838 356q-39 4-250 45-8 0-25 5 2-10 6-35 39-221 43-250 8-76-16.5-113T524-29q-106 0-90 150 4 29 43 250 2 8 4 20t2 15q-12-4-22-5-219-41-250-45-150-16-150 90.5T211 537q31-4 250-45 6 0 22-5l-6 19q-39 156-43 192-2 12-2 37t2 37q4 37 43 195 4 8 4 14-4 0-20-4-229-41-250-43-150-16-150 90 0 47 37 72.5t113 15.5q20-2 250-43 4 0 11-1t11-3q0 2-2 14.5t-4 20.5q-39 221-43 250-16 150 90 149 47 0 72-37t16-112q-4-29-43-250-4-25-6-35 4 0 12.5 2t12.5 2q221 39 250 43 76 10 112.5-15.5T987 1024q0-106-149-90-29 4-250 43-16 4-23 4 0-2 2-7t2-7q37-139 43-195 2-12 2-36.5t-2-37.5q-6-57-43-192 0-2-2-8t-2-11q12 4 23 5 211 41 250 45z" glyph-name="daggerdbl" horiz-adv-x="1048" unicode="‡"/><glyph d="M297 874q106 0 172-64.5T535 643t-66-166.5T297 412q-104 0-170 64.5T61 643t66 166.5T297 874z" glyph-name="bullet" horiz-adv-x="595" unicode="•"/><glyph d="M250 352q84 0 137-51t53-133-53-133-137-51-136.5 51T61 168t52.5 133T250 352zm483 0q86 0 138.5-51T924 168 871.5 35 733-16q-84 0-136 51t-52 133 52 133 136 51zm486 0q84 0 136-51t52-133-52-133-136-51q-86 0-138.5 51T1028 168t52.5 133 138.5 51z" glyph-name="ellipsis" horiz-adv-x="1468" unicode="…"/><glyph d="M1337 1434q27 0 46.5-10.5t26.5-36-19-66.5q-14-27-341-587T668 80Q621 0 559 0h-59q-41 0-58.5 26.5T451 113q373 651 714 1230 51 90 111 91h61zm-497-346.5q0-167.5-105.5-265T451 725q-180 0-285 97.5t-105 265 104.5 266T451 1452q178 0 283.5-98.5t105.5-266zm-512-.5q0-100 31.5-162.5t91-62.5 91 62.5T573 1087q0 102-31.5 165t-91 63-91-63-31.5-165zm1071-378q178 0 283.5-97.5T1788 346 1682.5 80 1399-18q-180 0-285.5 98T1008 346t105.5 265.5T1399 709zm0-590q59 0 91 62.5t32 164.5q0 100-32 163.5t-91 63.5q-61 0-93-63.5T1274 346q0-102 32-164.5t93-62.5zm880 590q180 0 286-97.5T2671 346 2565.5 80 2279-18q-178 0-283.5 98T1890 346t105.5 265.5T2279 709zm.5-590q59.5 0 92 62.5T2404 346q0 100-32.5 163.5t-92 63.5-91-63.5T2157 346q0-102 31.5-164.5t91-62.5z" glyph-name="perthousand" horiz-adv-x="2732" unicode="‰"/><glyph d="M102 600q221 156 414 283 80 51 80-39v-19q0-20-3-34.5t-5-23.5-13.5-22.5T559 727t-25.5-21.5T504 680Q379 571 299 498q80-74 205-183 8-8 25.5-21t22.5-18.5 16.5-16.5 13.5-17 7-17.5 6-25 1-29.5v-18q0-37-17.5-49.5T516 115q-129 82-414 282-6 4-19 13.5T64.5 423 51 432t-11 10-8 9.5-7 10.5-3.5 12-1.5 15v17q0 10 3.5 19.5T29 541t11 14 15 12 22.5 15.5T102 600z" glyph-name="guilsinglleft" horiz-adv-x="657" unicode="‹"/><glyph d="M555 600q10-6 25.5-17.5T601 567t14.5-12 12.5-14 5-15.5 2-19.5v-17q0-8-1-15t-5-14-7.5-11.5T609 436t-14-11-18.5-13.5T555 397Q270 196 141 115q-47-25-63.5-12.5T61 152v18q0 16 1 29.5t6.5 25T76 243t12 17 16.5 15.5T127 294t25 21q55 49 121.5 107.5T358 498q-18 16-84.5 74.5T152 680q-10 8-25.5 22.5t-22 19.5T89 737.5 76 755t-8.5 18-5.5 23.5-1 28.5v19q0 90 80 39 193-127 414-283z" glyph-name="guilsinglright" horiz-adv-x="655" unicode="›"/><glyph d="M743 1538q96 0 54-113Q277 51 244-33q-35-80-94-80h-19q-37 0-57.5 26T70-18q526 1391 557 1466 18 51 40.5 70.5T725 1538h18z" glyph-name="fraction" horiz-adv-x="872" unicode="⁄"/><glyph d="M1532 461q31-23-8-115-14-41-37-81t-69-94-104.5-93T1163 10.5 963-18q-315 0-523.5 161.5T170 547H57q-23 0-40 16.5T0 604v2q0 23 17.5 39.5T57 662h95q-6 55-7 108H57q-23 0-40 16.5T0 827v2q0 23 17.5 39.5T57 885h101q51 293 296.5 449.5T1020 1438q98-18 152.5-6t69.5 33.5 33.5 47 45.5 29.5q51 8 71.5-19.5t34.5-99.5q68-369 72-397 8-47-9-73.5t-56-24.5q-33 2-70 50t-70.5 107.5T1185 1199t-175 65q-176 18-289-89.5T588 885h495q23 0 40.5-16.5T1141 829v-2q0-25-17.5-41t-40.5-16H584q0-16 2-25 2-33 10-83h444q23 0 40.5-16.5T1098 606v-2q0-25-17.5-41t-40.5-16H625q104-297 403-311 84-4 153.5 16t110.5 52 79 68 58.5 62.5 50 36.5 52.5-10z" glyph-name="Euro" horiz-adv-x="1589" unicode="€"/><glyph d="M823 475H596v-69h350q25 0 41.5-16.5T1004 350v-2q0-25-16.5-41T946 291H600q6-61 35-92 47-53 65.5-82T715 61Q705 0 618 0H197q-92 0-95 61-2 43 66 138 27 35 33 92h-82q-23 0-40.5 16.5T61 348v2q0 23 17.5 39.5T119 406h88v69h-66q-33 0-56.5 23.5T61 555v47q0 33 24 56.5t56 23.5h66v291q0 119-6 173t-33 89q-41 57-54.5 82.5T102 1370q2 63 95 64h602q279 0 407.5-139.5T1335 940q0-199-141.5-332T823 475zm-227 631V817q0-82 17.5-108.5T698 682h9q100 0 159.5 79T926 963q0 121-59.5 199.5T707 1241h-9q-68 0-85-26.5T596 1106z" glyph-name="uni20BD" horiz-adv-x="1376" unicode="₽"/><glyph d="M1368 422q0-184-133-299T834 0v-121q0-23-16.5-40T778-178h-4q-23 0-39 17.5T719-121V0H539v-121q0-23-16.5-40T483-178h-2q-25 0-41 17.5T424-121V0H160Q70 0 63 61q-2 41 68 138 27 35 33 88t6 174v512q0 119-6 173t-33 89q-43 59-56.5 83.5T63 1370q6 63 97 64h264v120q0 25 16.5 41.5T481 1612h2q23 0 39.5-16.5T539 1554v-120h180v120q0 25 16.5 41.5T774 1612h4q23 0 39.5-16.5T834 1554v-129q188-25 297.5-116.5T1241 1067q0-123-64.5-208T991 750q170-6 273.5-102.5T1368 422zm-811 702V954q0-117 88-116h31q78 0 124 57t46 143-46 144.5-124 58.5h-31q-88 0-88-117zm154-931q104 0 168.5 62T944 421.5t-64.5 167T711 651h-37q-72 0-94.5-22.5T557 532V313q0-76 22.5-98t94.5-22h37z" glyph-name="uni20BF" horiz-adv-x="1388" unicode="₿"/><glyph d="M2462 657q23 0 40-17t17-40v-2q0-23-17.5-40t-39.5-17h-828q-25 0-41 17t-16 40v2q0 23 16.5 40t40.5 17h828zm-414 146q-160 0-254 88t-94 237.5 94 236.5 254 87 254-87 94-236.5-94-237.5-254-88zm0 543q-68 0-103.5-60.5T1909 1128q0-98 35.5-158.5T2048 909t102.5 60.5 34.5 159-34.5 158T2048 1346zm-631 88q90 0 96-62 2-41-67-137-27-37-34-91t-7-171V113q0-113-96-113h-146q-78 0-113.5 17.5T971 104q-39 66-609 994V461q0-117 7.5-171t33.5-91q43-59 55.5-84T469 63q-2-63-94-63H158Q66 0 63 63q-2 27 10.5 51.5T129 199q27 37 34 91t7 171v512h-2q0 121-6 174t-33 88q-43 59-55.5 85T63 1372q2 61 93 62h342q76 0 105.5-16.5T670 1339q8-14 105-173.5T999 796t213-354v531q0 117-7 171t-34 91q-68 94-65 137 2 61 94 62h217z" glyph-name="afii61352" horiz-adv-x="2539" unicode="№"/><glyph d="M838 745q35 0 57.5-22.5T918 666v-48q0-33-24-56t-56-23H141q-33 0-56.5 23.5T61 618v48q0 33 24 56t56 23h697z" glyph-name="minus" horiz-adv-x="978" unicode="−"/><glyph d="M178 918q-39-47-83-28t-29 73q27 96 78 152t153 56q55 0 123.5-25.5t116-48T640 1077t101 47q23 23 50.5 27t44-10.5T852 1102q-2-33-14.5-68t-37-72.5-71.5-58T618 887q-45 4-115.5 29.5t-120.5 45T274.5 975 178 918zm563-134q37 35 75 26t36-50q-2-33-14.5-67t-37-71.5-71.5-59T618 545q-45 4-115.5 29.5t-120.5 46T274.5 635 178 578q-39-49-83-30t-29 75q27 94 78 150t153 56q55 0 123.5-24.5t116-48T640 736t101 48z" glyph-name="approxequal" horiz-adv-x="915" unicode="≈"/><glyph d="M838 713H623l-68-142h283q35 0 57.5-23.5T918 492v-48q0-35-23-57t-57-22H457L348 135q-14-29-45-40t-61 3l-17 8q-29 14-41 45t2 62l74 152H141q-35 0-57.5 22.5T61 444v48q0 33 22.5 56t57.5 23h215l68 142H141q-33 0-56.5 23.5T61 793v47q0 33 22.5 56.5T141 920h381l109 229q14 29 45 40t61-3l17-6q29-16 41-47t-2-62l-74-151h119q35 0 57.5-24t22.5-56v-47q0-33-23.5-56.5T838 713z" glyph-name="notequal" horiz-adv-x="978" unicode="≠"/><glyph d="M797 150q33 0 56.5-25T877 68V20q0-33-24-56t-56-23H100q-33 0-56.5 23.5T20 20v48q0 35 24 58.5t56 23.5h697zm80 772q0-49-27-79t-90-50q-92-29-488-152 393-123 488-152 117-37 117-131v-88q0-37-14.5-46t-65.5 7q-37 14-348.5 134T100 500q-49 18-64.5 33.5T20 580v120q0 31 15.5 46.5T100 780q37 14 348.5 134T797 1049q51 16 65.5 7t14.5-44v-90z" glyph-name="lessequal" horiz-adv-x="937" unicode="≤"/><glyph d="M838 150q33 0 56.5-25T918 68V20q0-33-24-56t-56-23H141q-33 0-56.5 23.5T61 20v48q0 35 24 58.5t56 23.5h697zm80 550V580q0-31-15.5-46.5T838 500q-238-90-697-269-51-16-65.5-7T61 270v88q0 94 115 131 47 14 225.5 69.5T666 641q-86 27-264.5 82T176 793Q61 830 61 922v90q0 35 14.5 44t65.5-7q459-178 697-269 49-18 64.5-33.5T918 700z" glyph-name="greaterequal" horiz-adv-x="937" unicode="≥"/><glyph d="M229-86q74 0 122-50t48-130q0-102-43-197.5T238-614q-51-37-85-10.5t7 81.5q43 61 53 127-70 6-111 51.5T61-252q0 74 46 120t122 46z" glyph-name="uniF6C3" horiz-adv-x="460" unicode=""/><glyph d="M229-86q74 0 122-50t48-130q0-102-43-197.5T238-614q-51-37-85-10.5t7 81.5q43 61 53 127-70 6-111 51.5T61-252q0 74 46 120t122 46z" glyph-name="glyph357" horiz-adv-x="460"/></font>
</defs>
</svg>
